Loading...
Error

Снайпер / American Sniper (Клинт Иствуд) [2014 г., боевик, военный, биография, драма, WEB-DLRip] Dub [чистый звук]

Статистика раздачи
Размер:  2,05 GB   |    Зарегистрирован:  1 год 8 месяцев   |    Скачан:  62 раза

Полного источника не было: 18 часов

Сидов:  0  |  0 KB/s  ]   Личеров:  0  |  0 KB/s  ]

* - сиды/пиры с внешних источников

   
 
Автор Сообщение

Паукан Пол:Муж

24-Мар-2015 14:49

Снайпер / American Sniper


Название: Снайпер / Американский снайпер
Оригинальное название: American Sniper
Год выхода: 2014
Жанр: боевик, драма, военный, биография
Режиссёр: Клинт Иствуд
В фильме снимались: Брэдли Купер, Сиенна Миллер, Кайл Галлнер, Бен Рид, Элиз Робертсон, Люк Саншайн, Трой Винсент, Брэндон Сальгадо, Кейр О’Доннелл, Марне Паттерсон

Описание: он побил своеобразный рекорд – убил самого большое число противников. С его «результатами» было сложно сравниться. Поэтому и назвали его иракцы дьяволом. Но кроме описания военных реалий, действий и операций, здесь приводятся воспоминания его жены – женщины, которой пришлось делить своего любимого с войной. Крис всё больше и больше привязывался не только к тем людям, с которыми ему пришлось делить скромное жильё, обед и трудности войны, но и к самой войне – к постоянной борьбе за жизнь…



Выпущено: США / Warner Bros., Village Roadshow Pictures, Mad Chance Productions
Продолжительность: 02:13:50
Озвучивание: Дублированное [Чистый звук]
Примечание: Присутствует около 6 минут вставок звука с TS и вшитые китайские субтитры!

Формат: AVI (XviD)
Качество: WEB-DLRip
Видео: 720x304, 1949 kb/s
Аудио: AC3, 256 kb/s (2 ch)
Размер: 2.05 GB
Скачать: Сэмпл

General
Complete name : Amer1kan.Snayper.2014.D.WEB-DLRip.2100MB.avi
Format : AVI
Format/Info : Audio Video Interleave
Format profile : OpenDML
File size : 2.05 GiB
Duration : 2h 12mn
Overall bit rate : 2 217 Kbps
Writing application : VirtualDubMod 1.5.10.3 | www.virtualdub-fr.org || (build 2550/release)
Writing library : VirtualDubMod build 2550/release

Video
ID : 0
Format : MPEG-4 Visual
Format profile : Advanced Simple@L5
Format settings, BVOP : 2
Format settings, QPel : No
Format settings, GMC : No warppoints
Format settings, Matrix : Default (MPEG)
Codec ID : XVID
Codec ID/Hint : XviD
Duration : 2h 12mn
Bit rate : 1 949 Kbps
Width : 720 pixels
Height : 304 pixels
Display aspect ratio : 2.35:1
Frame rate : 23.976 fps
Color space : YUV
Chroma subsampling : 4:2:0
Bit depth : 8 bits
Scan type : Progressive
Compression mode : Lossy
Bits/(Pixel*Frame) : 0.371
Stream size : 1.80 GiB (88%)
Writing library : XviD 1.2.1 (UTC 2008-12-04)

Audio
ID : 1
Format : AC-3
Format/Info : Audio Coding 3
Mode extension : CM (complete main)
Format settings, Endianness : Big
Codec ID : 2000
Duration : 2h 12mn
Bit rate mode : Constant
Bit rate : 256 Kbps
Channel(s) : 2 channels
Channel positions : Front: L R
Sampling rate : 48.0 KHz
Bit depth : 16 bits
Compression mode : Lossy
Stream size : 243 MiB (12%)
Alignment : Split accross interleaves
Interleave, duration : 42 ms (1.00 video frame)
Interleave, preload duration : 500 ms


pic pic pic
Для увеличения картинки щелкните мышкой по превью

Этот торрент недоступен для скачивания без регистрации, однако доступен по публичной magnet-ссылке (источники с публичных трекеров). Перед использованием ссылки прочтите, пожалуйста Пользовательское соглашение, а также как можно дольше оставайтесь на раздаче! Для того, чтобы скачать сам торрент-файл (который видит больше источников), а также для того, чтобы поблагодарить релизера, вам необходимо зарегистрироваться. Если регистрироваться лень - вы можете также попробовать скачать релиз по нашим партнерским ссылкам ниже.

[underverse.su].t53016.torrent
Трекер: Зарегистрирован   [ 24.03.2015 14:49 ]  

Статус: T временная (by Паукан at 24.03.2015 14:49)
Поблагодарили: 1 человек
Тип торрента: публичный - доступные источники с открытых трекеров: 
Размер: 2,05 GB (занимает 0,47 DVDR, для записи нужно 1 болванка DVDR/RW)
 
 
Похожие темы
Форум Тема Автор Торрент Отв. Посл. сооб.
T Зарубежное кино [DVDRip, Low-Res HDRip, и т.д.] Снайпер / American Sniper (Клинт Иствуд / Clint Eastwood) [2014 г., боевик, драма, военный, биография, HDRip] Dub (чистый звук) 90ytr90
17 | 0

0 | 462

25

05.05.2015 10:46

Зарубежное кино [DVDRip, Low-Res HDRip, и т.д.] Снайпер / American Sniper (Клинт Иствуд / Clint Eastwood) [2014 г., боевик, драма, военный, биография, HDRip] MVO (Gears Media) 90ytr90
1 | 0

0 | 366

13

05.05.2015 10:54

Зарубежное кино [DVDRip, Low-Res HDRip, и т.д.] Снайпер / American Sniper (Клинт Иствуд / Clint Eastwood) [2014 г., боевик, драма, военный, биография, HDRip] MVO (Gears Media) 90ytr90
1 | 0

0 | 407

5

05.05.2015 11:00

T Зарубежное кино [DVDRip, Low-Res HDRip, и т.д.] Снайпер / American Sniper (Клинт Иствуд) [2014 г., боевик, драма, военный, биография, HDRip] Dub [iTunes] Паукан
44 | 0

0 | 603

21

08.05.2015 10:44

T Зарубежное кино [DVDRip, Low-Res HDRip, и т.д.] Снайпер / American Sniper (Клинт Иствуд) [2014 г., боевик, драма, военный, биография, HDRip] Dub [iTunes] Паукан
6 | 0

0 | 728

21

08.05.2015 10:47

Зарубежное кино HQ Снайпер / American Sniper (Клинт Иствуд) [2014 г., боевик, драма, военный, биография, BDRip] Dub (Rus,Ukr) + Original + Sub (Rus,Ukr,Eng) HQ Underverse HQ Underverse
3 | 0

0 | 1215

15

25.05.2015 09:57

T Зарубежное кино [HDDVDRip / BDRip / WEB-DL / HDTV 1080/720р] Снайпер / American Sniper (Клинт Иствуд) [2014 г., Боевик, драма, военный, биография, BDRip 1080p] Dub (чистый звук) + Original romeoexpert
0 | 0

0 | 764

20

01.05.2015 10:57

Зарубежное кино [HDDVDRip / BDRip / WEB-DL / HDTV 1080/720р] Снайпер / American Sniper (Клинт Иствуд / Clint Eastwood) [2014 г., боевик, драма, военный, биография, BDRip 1080p] AVO (Вячеслав Котов) + Original (Eng) + Sub (Eng) 90ytr90
7 | 0

0 | 520

17

05.05.2015 11:11

T Зарубежное кино [HDDVDRip / BDRip / WEB-DL / HDTV 1080/720р] Снайпер / American Sniper (Клинт Иствуд / Clint Eastwood) [2014 г., боевик, драма, военный, биография, BDRip 720p] Dub (чистый звук) + Original (Eng) + Sub (Rus, Eng) 90ytr90
3 | 0

0 | 546

16

05.05.2015 11:17

T Зарубежное кино [HDDVDRip / BDRip / WEB-DL / HDTV 1080/720р] Снайпер / American Sniper (Клинт Иствуд) [2014 г., боевик, драма, военный, биография, BDRip 720p] Dub [iTunes] + Original + Sub (Eng) Паукан
4 | 0

0 | 947

43

08.05.2015 10:51


Яндекс.Метрика powered by Sphinx


В Н И М А Н И Е
Сайт не распространяет и не хранит электронные версии произведений, а лишь бесплатно и без коммерческой выгоды (не требуя взамен платы,
SMS и т.д.) предоставляет доступ к создаваемому пользователями каталогу ссылок на торрент-файлы, которые содержат только списки хеш-сумм.
Убедительная просьба с жалобами обращаться напрямую к пользователю, разместившему торрент файл.

Вверх