Loading...
Error

Корабль / сезон 2 (1-26 серии из 26) (Марк Горобец) [2015 г., фантастика, приключения, мелодрама, SatRip]

Статистика раздачи
Размер:  17,07 GB   |    Зарегистрирован:  1 год 7 месяцев   |    Скачан:  15 раз

Полного источника не было: 12 часов

Сидов:  0  |  0 KB/s  ]   Личеров:  0  |  0 KB/s  ]

* - сиды/пиры с внешних источников

   
 
Автор Сообщение

nemos Пол:Муж

23-Мар-2015 18:03





Год выпуска: 23 марта 2015
Жанр: фантастика, приключения, мелодрама
Страна: Россия
Режиссер: Марк Горобец
Качество видео: SatRip

Продолжительность: 00:47:13 серия
Формат: AVI
Видео: XviD, 720x368, 1800 kbps
Аудио: русский, MP3 2.0, 128 kbps
В ролях: Дмитрий Певцов, Илья Любимов, Юлия Агафонова, Агриппина Стеклова, Владимир Виноградов, Ингрид Олеринская, Матвей Зубалевич, Сергей Друзьяк, Александр Пугачёв (II), Илья Иосифов, Ярослава Базаева, Дмитрий Горевой, Ирина Антоненко, Мария Малиновская, Роман Курцын, Руслан Садковский, Вячеслав Бондарчук, Анастасия Сорокина, Фёдор Сухов, Дарья Храмцова и др.

Что может быть лучше путешествия на настоящем паруснике? Бескрайнее море, солнце, романтика, будет, о чем рассказать друзьям. На это рассчитывали двадцать курсантов, поднявшись на борт учебного парусного судна «Надежда».
Но беззаботный отдых длился недолго. Взрыв адронного коллайдера приводит к глобальной катастрофе, в результате которой все материки ушли под воду. Возможно, единственными выжившими людьми на планете оказались пассажиры «Надежды». Корабль становится их единственным домом. Правила жизни меняются. Никто не знает, что будет завтра.

Код:

E:\Фильмы-1\корабль 2 сезон\Korabl.2.01.SATRip.avi
   General
      Complete name : E:\Фильмы-1\корабль 2 сезон\Korabl.2.01.SATRip.avi
      Format : AVI
      Format/Info : Audio Video Interleave
      File size : 655 MiB
      Duration : 47mn 13s
      Overall bit rate : 1 938 Kbps
      Writing application : VirtualDubMod 1.5.10.3 | www.virtualdub-fr.org || (build 2550/release)
      Writing library : VirtualDubMod build 2550/release
   Video #0
      ID : 0
      Format : MPEG-4 Visual
      Format profile : Advanced Simple@L5
      Format settings, BVOP : 2
      Format settings, QPel : No
      Format settings, GMC : No warppoints
      Format settings, Matrix : Default (H.263)
      Codec ID : XVID
      Codec ID/Hint : XviD
      Duration : 47mn 13s
      Bit rate : 1 800 Kbps
      Width : 720 pixels
      Height : 368 pixels
      Display aspect ratio : 1.957
      Frame rate : 25.000 fps
      Color space : YUV
      Chroma subsampling : 4:2:0
      Bit depth : 8 bits
      Scan type : Progressive
      Compression mode : Lossy
      Bits/(Pixel*Frame) : 0.272
      Stream size : 608 MiB (93%)
      Writing library : XviD 1.2.1 (UTC 2008-12-04)
   Audio #1
      ID : 1
      Format : MPEG Audio
      Format version : Version 1
      Format profile : Layer 3
      Mode : Joint stereo
      Codec ID : 55
      Codec ID/Hint : MP3
      Duration : 47mn 13s
      Bit rate mode : Constant
      Bit rate : 128 Kbps
      Channel(s) : 2 channels
      Sampling rate : 48.0 KHz
      Compression mode : Lossy
      Stream size : 43.2 MiB (7%)
      Alignment : Aligned on interleaves
      Interleave, duration : 40 ms (1.00 video frame)
      Interleave, preload duration : 504 ms
      Writing library : LAME3.99r
      Encoding settings : -m j -V 4 -q 9 -lowpass 17 -b 128
picpicpicpic
Для увеличения картинки щелкните мышкой по превью

Этот торрент недоступен для скачивания без регистрации, однако доступен по публичной magnet-ссылке (источники с публичных трекеров). Перед использованием ссылки прочтите, пожалуйста Пользовательское соглашение, а также как можно дольше оставайтесь на раздаче! Для того, чтобы скачать сам торрент-файл (который видит больше источников), а также для того, чтобы поблагодарить релизера, вам необходимо зарегистрироваться. Если регистрироваться лень - вы можете также попробовать скачать релиз по нашим партнерским ссылкам ниже.

[underverse.su].t54222.torrent
Трекер: Зарегистрирован   [ 30.04.2015 15:33 ]  

Статус: проверено (by nemos at 30.04.2015 15:33)
Поблагодарили: 3 человека
Тип торрента: публичный - доступные источники с открытых трекеров: 
Размер: 17,07 GB (занимает 3,9 DVDR, для записи нужно 4 болванки DVDR/RW)
 
 
Похожие темы
Форум Тема Автор Торрент Отв. Посл. сооб.
xUSSR сериалы Корабль / сезон 1 (1-26 серии из 26) (Олег Асадулин, Марк Горобец) [2013 г., фантастика, приключения, мелодрама, SatRip] nemos
0 | 0

2 | 2956

49

20.03.2015 18:22

xUSSR сериалы [BD / Remux / BDRip / WEB-DL / HDTV 1080/720р] Корабль / сезон 2 (1-26 серии из 26) (Марк Горобец) [2015 г., фантастика, приключения, мелодрама, WEB-DL 1080p] nemos
0 | 1

1 | 2769

0

31.03.2015 14:26



Последний раз редактировалось: nemos (30.04.2015 15:33), всего редактировалось 21 раз(а)

nemos Пол:Муж

24-Мар-2015 18:52

Раздача обновлена! Добавлены все серии.

Яндекс.Метрика powered by Sphinx


В Н И М А Н И Е
Сайт не распространяет и не хранит электронные версии произведений, а лишь бесплатно и без коммерческой выгоды (не требуя взамен платы,
SMS и т.д.) предоставляет доступ к создаваемому пользователями каталогу ссылок на торрент-файлы, которые содержат только списки хеш-сумм.
Убедительная просьба с жалобами обращаться напрямую к пользователю, разместившему торрент файл.

Вверх