Loading...
Error

Ленинград 46 (1-32 серия из 32 + послесловие) (Игорь Копылов) [2015 г., криминал, детектив, SatRip]

Статистика раздачи
Размер:  17,85 GB   |    Зарегистрирован:  1 год 7 месяцев   |    Скачан:  53 раза
Сидов:  2  |  0 KB/s  ]   Личеров:  0  |  0 KB/s  ]

* - сиды/пиры с внешних источников

   
 
Автор Сообщение

nemos Пол:Муж

23-Мар-2015 15:02

Ленинград 46


Год выпуска: 2015
Жанр: криминал, детектив
Страна: Россия
Режиссер: Игорь Копылов
В ролях: Сергей Гармаш, Евгений Миллер, Анна Табанина, Алексей Горбунов, Александр Лыков, Андрей Мерзликин, Даниил Страхов, Дмитрий Ульянов, Елена Коренева, Александра Богданова (IV), Эдуард Флёров, Пётр Зайченко, Роман Курцын, Кирилл Полухин, Евгений Леонов-Гладышев...
Сюжет фильма:
История о мужестве, драма человеческих судеб, впервые открывающая многие страницы жизни послевоенного Ленинграда — суровой и подчас жестокой. Город, только что переживший блокаду и еще не оправившийся от голода, разрушений, смертей. Здесь милиция ведет свою неравную войну с преступностью, накрывшей Ленинград после войны… После фронта, плена, штрафбата и госпиталя в Ленинград возвращается бывший преподаватель русского языка и литературы Игорь Данилов. В поезде он знакомится с командировочным Тарасовым. Случайно столкнув Данилова и Тарасова в вагоне поезда, жизнь будет сводить их не раз и не два… Потеряв все – семью, работу, жилье — бывший преподаватель Данилов оказывается по другую сторону закона. Пытаясь добиться справедливости и отомстить тем, кто исковеркал его жизнь, он все больше погружается в криминальный мир послевоенного Ленинграда, постепенно превращаясь в одного из самых хитрых и опасных преступников.


Качество видео: SatRip

Продолжительность: 00:44:37 серия
Формат: AVI
Видео: XviD, 720x400, 1 494 kbps
Аудио: русский, AC3 2.0, 192 kbps

Код:

E:\Фильмы-1\Leningrad.46.2015.XviD.SATRip.by.GeneralFilm\01.Leningrad.46.2015.XviD.SATRip.by.GeneralFilm.avi
   General
      Complete name : E:\Фильмы-1\Leningrad.46.2015.XviD.SATRip.by.GeneralFilm\01.Leningrad.46.2015.XviD.SATRip.by.GeneralFilm.avi
      Format : AVI
      Format/Info : Audio Video Interleave
      File size : 541 MiB
      Duration : 44mn 37s
      Overall bit rate : 1 696 Kbps
      Writing application : VirtualDubMod 1.5.10.3 | www.virtualdub-fr.org || (build 2550/release)
      Writing library : VirtualDubMod build 2550/release
   Video #0
      ID : 0
      Format : MPEG-4 Visual
      Format profile : Advanced Simple@L5
      Format settings, BVOP : 1
      Format settings, QPel : No
      Format settings, GMC : No warppoints
      Format settings, Matrix : Default (H.263)
      Codec ID : XVID
      Codec ID/Hint : XviD
      Duration : 44mn 37s
      Bit rate : 1 494 Kbps
      Width : 720 pixels
      Height : 400 pixels
      Display aspect ratio : 16:9
      Frame rate : 25.000 fps
      Color space : YUV
      Chroma subsampling : 4:2:0
      Bit depth : 8 bits
      Scan type : Progressive
      Compression mode : Lossy
      Bits/(Pixel*Frame) : 0.208
      Stream size : 477 MiB (88%)
      Writing library : XviD 73
   Audio #1
      ID : 1
      Format : AC-3
      Format/Info : Audio Coding 3
      Mode extension : CM (complete main)
      Format settings, Endianness : Big
      Codec ID : 2000
      Duration : 44mn 37s
      Bit rate mode : Constant
      Bit rate : 192 Kbps
      Channel(s) : 2 channels
      Channel positions : Front: L R
      Sampling rate : 48.0 KHz
      Bit depth : 16 bits
      Compression mode : Lossy
      Stream size : 61.3 MiB (11%)
      Alignment : Split accross interleaves
      Interleave, duration : 40 ms (1.00 video frame)
      Interleave, preload duration : 500 ms
picpicpicpicpicpicpicpicpicpicpicpicpicpicpic
Для увеличения картинки щелкните мышкой по превью
Полные 32 серии + послесловие.

Этот торрент недоступен для скачивания без регистрации, однако доступен по публичной magnet-ссылке (источники с публичных трекеров). Перед использованием ссылки прочтите, пожалуйста Пользовательское соглашение, а также как можно дольше оставайтесь на раздаче! Для того, чтобы скачать сам торрент-файл (который видит больше источников), а также для того, чтобы поблагодарить релизера, вам необходимо зарегистрироваться. Если регистрироваться лень - вы можете также попробовать скачать релиз по нашим партнерским ссылкам ниже.

[underverse.su].t53736.torrent
Трекер: Зарегистрирован   [ 16.04.2015 16:02 ]  

Статус: проверено (by nemos at 16.04.2015 16:03)
Поблагодарили: 5 человек
Тип торрента: публичный - доступные источники с открытых трекеров: 
Размер: 17,85 GB (занимает 4,08 DVDR, для записи нужно 5 болванок DVDR/RW)
 
 


Последний раз редактировалось: nemos (16.04.2015 21:40), всего редактировалось 17 раз(а)

nemos Пол:Муж

24-Мар-2015 18:52

Раздача обновлена! Добавлены серии: 31-32 + послесловие.

Яндекс.Метрика powered by Sphinx


В Н И М А Н И Е
Сайт не распространяет и не хранит электронные версии произведений, а лишь бесплатно и без коммерческой выгоды (не требуя взамен платы,
SMS и т.д.) предоставляет доступ к создаваемому пользователями каталогу ссылок на торрент-файлы, которые содержат только списки хеш-сумм.
Убедительная просьба с жалобами обращаться напрямую к пользователю, разместившему торрент файл.

Вверх