Loading...
Error

Цимбелин / Cymbeline (Майкл Алмерейда) [2014 г., Драма, WEB-DLRip] MVO

Статистика раздачи
Размер:  1,46 GB   |    Зарегистрирован:  2 года 5 месяцев   |    Скачан:  13 раз

Полного источника не было: 2 года 3 месяца

Сидов:  0  |  0 KB/s  ]   Личеров:  0  |  0 KB/s  ]

* - сиды/пиры с внешних источников

   
 
Автор Сообщение

Су-34 Пол:Муж

22-Мар-2015 20:21

Цимбелин / Cymbeline


Год выпуска: 2014
Жанр: Драма
Страна: США
Режиссер: Майкл Алмерейда
В ролях: Итан Хоук, Эд Харрис, Милла Йовович, Дакота Джонсон, Антон Ельчин, Пенн Бэджли, Джон Легуизамо, Питер Герети, Кевин Корригэн, Вонди Куртис-Холл
Сюжет фильма:
Современный пересказ одноименной трагедии Уильяма Шекспира. Действие перенесено в наши дни. Цимбелин, лидер байкеров-наркоторговцев, объявляет войну местным продажным полицейским. Его дочери, Имогене и ее возлюбленному Постуму приходится самим сражаться за свою любовь.

  • Мировая премьера: 3 сентября 2014
  • Российская премьера: 5 марта 2015


Качество видео: WEB-DLRip

Продолжительность: 01:38:30
Формат: AVI
Видео: XviD, 720x384, 1723 kbps
Аудио: русский, двухголосый закадровый [любительский ], AC3 2.0, 384 kbps

Код:

Общее
 Полное имя : H:\P15\Cymbeline.2014.P.WEB-DLRip.avi
 Формат : AVI
 Формат/Информация : Audio Video Interleave
 Размер файла : 1,46 Гбайт
 Продолжительность : 1 ч. 38 м.
 Общий поток : 2117 Кбит/сек
 Программа кодирования : VirtualDubMod 1.5.10.3 || (build 2550/release)
 Библиотека кодирования : VirtualDubMod build 2550/release

Видео
 Идентификатор : 0
 Формат : MPEG-4 Visual
 Профиль формата : Advanced Simple@L5
 Параметр BVOP формата : 2
 Параметр QPel формата : Нет
 Параметр GMC формата : Без точки перехода
 Параметр матрицы формата : Default (MPEG)
 Режим смешивания : Сжатый битовый поток
 Идентификатор кодека : XVID
 Идентификатор кодека/Подсказка : XviD
 Продолжительность : 1 ч. 38 м.
 Битрейт : 1724 Кбит/сек
 Ширина : 720 пикселей
 Высота : 384 пикселя
 Соотношение сторон : 1,85:1
 Частота кадров : 23,976 кадра/сек
 Цветовое пространство : YUV
 Субдискретизация насыщенности : 4:2:0
 Битовая глубина : 8 бит
 Тип развёртки : Прогрессивная
 Метод сжатия : С потерями
 Бит/(Пиксели*Кадры) : 0.260
 Размер потока : 1,19 Гбайт (81%)
 Библиотека кодирования : XviD 73

Аудио
 Идентификатор : 1
 Формат : AC-3
 Формат/Информация : Audio Coding 3
 Расширение режима : CM (complete main)
 Параметр Endianness формата : Big
 Идентификатор кодека : 2000
 Продолжительность : 1 ч. 38 м.
 Вид битрейта : Постоянный
 Битрейт : 384 Кбит/сек
 Каналы : 2 канала
 Расположение каналов : Front: L R
 Частота : 48,0 КГц
 Битовая глубина : 16 бит
 Метод сжатия : С потерями
 Размер потока : 271 Мбайт (18%)
 Выравнивание : Разделение по промежуткам
 Продолжительность промежутка : 42 мс. (1,00 видеокадр)
 Время предзагрузки промежутка : 500 мс.
Семпл: http://sendfile.su/1099240

picpicpicpicpic
Для увеличения картинки щелкните мышкой по превью

Этот торрент недоступен для скачивания без регистрации, однако доступен по публичной magnet-ссылке (источники с публичных трекеров). Перед использованием ссылки прочтите, пожалуйста Пользовательское соглашение, а также как можно дольше оставайтесь на раздаче! Для того, чтобы скачать сам торрент-файл (который видит больше источников), а также для того, чтобы поблагодарить релизера, вам необходимо зарегистрироваться. Если регистрироваться лень - вы можете также попробовать скачать релиз по нашим партнерским ссылкам ниже.

[underverse.su].t52930.torrent
Трекер: Зарегистрирован   [ 22.03.2015 20:21 ]  

Статус: проверено (by 90ytr90 at 23.03.2015 17:52)
Поблагодарили: пока никто не поблагодарил...
Тип торрента: публичный - доступные источники с открытых трекеров: 
Размер: 1,46 GB (занимает 1/3 DVDR, для записи нужно 1 болванка DVDR/RW)
 
 
Похожие темы
Форум Тема Автор Торрент Отв. Посл. сооб.
Зарубежное кино [DVDRip, Low-Res HDRip, и т.д.] Цимбелин / Cymbeline (Майкл Алмерейда) [2014 г., Драма, HDRip] DVO (RUS, Студия Пиратского Дубляжа) Ведьмочка
11 | 2

0 | 559

18

07.05.2015 01:03

T Зарубежное кино [DVDRip, Low-Res HDRip, и т.д.] Цимбелин / Cymbeline (Майкл Алмерейда) [2014 г., драма, HDRip] Dub [Чистый звук] Паукан
0 | 0

0 | 427

9

20.05.2015 14:17

Зарубежное кино [DVDRip, Low-Res HDRip, и т.д.] Цимбелин / Cymbeline (Майкл Алмерейда) [2014 г., драма, HDRip] Dub makkol
4 | 0

0 | 365

7

29.06.2015 23:24

Зарубежное кино [HDDVDRip / BDRip / WEB-DL / HDTV 1080/720р] Цимбелин / Cymbeline (Майкл Алмерейда) [2014 г., Драма, BDRip 720p] DVO (RUS, Студия Пиратского Дубляжа) + Original (ENG) Ведьмочка
1 | 0

0 | 496

10

07.05.2015 00:53


Яндекс.Метрика powered by Sphinx


В Н И М А Н И Е
Сайт не распространяет и не хранит электронные версии произведений, а лишь бесплатно и без коммерческой выгоды (не требуя взамен платы,
SMS и т.д.) предоставляет доступ к создаваемому пользователями каталогу ссылок на торрент-файлы, которые содержат только списки хеш-сумм.
Убедительная просьба с жалобами обращаться напрямую к пользователю, разместившему торрент файл.

Вверх