Loading...
Error

Плата по счетчику (1-4 серии из 4) (Кирилл Капица) [2015 г., боевик, детектив, триллер, ]

Статистика раздачи
Размер:  2,15 GB   |    Зарегистрирован:  1 год 8 месяцев   |    Скачан:  49 раз

Полного источника не было: 8 месяцев

Сидов:  0  |  0 KB/s  ]   Личеров:  0  |  0 KB/s  ]

* - сиды/пиры с внешних источников

   
 
Автор Сообщение

nemos Пол:Муж

20-Мар-2015 19:00

Плата по счетчику (мини-сериал)


Год выпуска: 20 марта 2015
Жанр: боевик, детектив, триллер
Страна: Россия
Режиссер: Кирилл Капица
В ролях: Алексей Комашко, Анастасия Рубова, Елена Руфанова, Елена Мартыненко, Александр Кудренко, Анатолий Кондюбов, Геша Меньшиков, Александр Большаков, Александр Демич, Владимир Севостьянихин, Александр Устинов, Константин Кайнов, Юрий Елагин, Артур Литвинов, Сергей Шкарбан, Александр Тютрюмов, Самвел Мужикян, Станислав Осколков, Наталья Корольская, Анна Фомина, Игорь Алимджанов, Анита Бумагина, Эрик Кения, Ирина Коваленко, Олег Панин
Сюжет фильма:
Простой таксист Павел, у которого после десяти лет совместной жизни с женой начались семейные проблемы, волею случая, встревает в бандитские "разборки". В багажнике его машины оказывается небольшой портфель, набитый бриллиантами. Ему приходится спасать свою жизнь и жизнь дочки, которую похитили бандиты банды Шампура после того, как бриллианты у Павла отобрали полицейские-оборотни. Силы казалось бы неравны, но на помощь Павлу приходят его друзья-таксисты. Развязка вроде как близка, но тут в борьбу вступает третья сила - настоящие владельцы портфеля с камнями.



Продолжительность: 00:44:15 серия
Формат: AVI
Видео: XviD, 720х400, 1537 kbps
Аудио: русский, AC3 2.0, 192 kbps

Код:

E:\Фильмы-1\Plata.po.schetchiku.2015.SATRip.Files-x\04.Plata.po.schetchiku.2015.SATRip.Files-x.avi
   General
      Complete name : E:\Фильмы-1\Plata.po.schetchiku.2015.SATRip.Files-x\04.Plata.po.schetchiku.2015.SATRip.Files-x.avi
      Format : AVI
      Format/Info : Audio Video Interleave
      File size : 550 MiB
      Duration : 44mn 15s
      Overall bit rate : 1 739 Kbps
      Writing application : VirtualDubMod 1.5.10.3 | www.virtualdub-fr.org || (build 2550/release)
      Writing library : VirtualDubMod build 2550/release
   Video #0
      ID : 0
      Format : MPEG-4 Visual
      Format profile : Advanced Simple@L5
      Format settings, BVOP : 1
      Format settings, QPel : No
      Format settings, GMC : No warppoints
      Format settings, Matrix : Custom
      Codec ID : XVID
      Codec ID/Hint : XviD
      Duration : 44mn 15s
      Bit rate : 1 537 Kbps
      Width : 720 pixels
      Height : 400 pixels
      Display aspect ratio : 16:9
      Frame rate : 25.000 fps
      Color space : YUV
      Chroma subsampling : 4:2:0
      Bit depth : 8 bits
      Scan type : Progressive
      Compression mode : Lossy
      Bits/(Pixel*Frame) : 0.213
      Stream size : 487 MiB (88%)
      Writing library : XviD 73
   Audio #1
      ID : 1
      Format : AC-3
      Format/Info : Audio Coding 3
      Mode extension : CM (complete main)
      Format settings, Endianness : Big
      Codec ID : 2000
      Duration : 44mn 15s
      Bit rate mode : Constant
      Bit rate : 192 Kbps
      Channel(s) : 2 channels
      Channel positions : Front: L R
      Sampling rate : 48.0 KHz
      Bit depth : 16 bits
      Compression mode : Lossy
      Stream size : 60.8 MiB (11%)
      Alignment : Split accross interleaves
      Interleave, duration : 40 ms (1.00 video frame)
      Interleave, preload duration : 500 ms
picpicpicpicpicpicpicpicpicpicpicpic
Для увеличения картинки щелкните мышкой по превью

Этот торрент недоступен для скачивания без регистрации, однако доступен по публичной magnet-ссылке (источники с публичных трекеров). Перед использованием ссылки прочтите, пожалуйста Пользовательское соглашение, а также как можно дольше оставайтесь на раздаче! Для того, чтобы скачать сам торрент-файл (который видит больше источников), а также для того, чтобы поблагодарить релизера, вам необходимо зарегистрироваться. Если регистрироваться лень - вы можете также попробовать скачать релиз по нашим партнерским ссылкам ниже.

[underverse.su].t52848.torrent
Трекер: Зарегистрирован   [ 20.03.2015 19:00 ]  

Статус: проверено (by nemos at 20.03.2015 19:00)
Поблагодарили: 2 человека
Тип торрента: публичный - доступные источники с открытых трекеров: 
Размер: 2,15 GB (занимает 0,49 DVDR, для записи нужно 1 болванка DVDR/RW)
 
 

Яндекс.Метрика powered by Sphinx


В Н И М А Н И Е
Сайт не распространяет и не хранит электронные версии произведений, а лишь бесплатно и без коммерческой выгоды (не требуя взамен платы,
SMS и т.д.) предоставляет доступ к создаваемому пользователями каталогу ссылок на торрент-файлы, которые содержат только списки хеш-сумм.
Убедительная просьба с жалобами обращаться напрямую к пользователю, разместившему торрент файл.

Вверх