Loading...
Error

ДНР. Занимательая история о самодельной стране [2014 г., документальный, HDRip] Original

Статистика раздачи
Размер:  1,78 GB   |    Зарегистрирован:  1 год 8 месяцев   |    Скачан:  46 раз

Полного источника не было: 1 день 17 часов

Сидов:  0  |  0 KB/s  ]   Личеров:  0  |  0 KB/s  ]

* - сиды/пиры с внешних источников

   
 
Автор Сообщение

vsif 

18-Мар-2015 08:58

ДНР. Занимательая история о самодельной стране
Год выпуска: 2014
Жанр: документальный
Страна: Великобритания
Режиссер: Режиссер, оператор, продюсер Энтони Баттс
В ролях: нет
Сюжет фильма:
История из самого центра событий о рождении новой страны, Донецкой Народной Республики. Съемки проходили в течении шести недель с апреля по май 2014 года. Камера следует за 300 революционерами, которые захватили здание Областной Государственной Администрации в центре Донецка и провозгласили независимость региона. Революционеры видят себя как спасителей своего народа от кровожадного фашистского правительства, расположенного в Киеве.

Качество видео: HDRip
Продолжительность: 56 мин
Формат: AVI
Видео: XviD, 1024х768, 4 316 kbps
Аудио: русский, оригинал, MP3 2.0, 192 kbps

Код:

Format : AVI
Format/Info : Audio Video Interleave
Format profile : OpenDML
File size : 1.78 GiB
Duration : 56mn 16s
Overall bit rate : 4 521 Kbps
Writing application : Lavf56.1.100

Video
ID : 0
Format : MPEG-4 Visual
Format profile : Simple@L1
Format settings, BVOP : No
Format settings, QPel : No
Format settings, GMC : No warppoints
Format settings, Matrix : Default (H.263)
Codec ID : XVID
Codec ID/Hint : XviD
Duration : 56mn 16s
Bit rate : 4 316 Kbps
Width : 1 024 pixels
Height : 768 pixels
Display aspect ratio : 16:9
Frame rate : 25.000 fps
Color space : YUV
Chroma subsampling : 4:2:0
Bit depth : 8 bits
Scan type : Progressive
Compression mode : Lossy
Bits/(Pixel*Frame) : 0.220
Stream size : 1.70 GiB (95%)
Writing library : Lavc56.0.101

Audio
ID : 1
Format : MPEG Audio
Format version : Version 1
Format profile : Layer 3
Mode : Joint stereo
Mode extension : MS Stereo
Codec ID : 55
Codec ID/Hint : MP3
Duration : 56mn 16s
Bit rate mode : Constant
Bit rate : 192 Kbps
Channel(s) : 2 channels
Sampling rate : 48.0 KHz
Compression mode : Lossy
Stream size : 77.3 MiB (4%)
Alignment : Aligned on interleaves
Interleave, duration : 24 ms (0.60 video frame)
Interleave, preload duratio : 24 ms
Writing library : LAME3.99.5

Этот торрент недоступен для скачивания без регистрации, однако доступен по публичной magnet-ссылке (источники с публичных трекеров). Перед использованием ссылки прочтите, пожалуйста Пользовательское соглашение, а также как можно дольше оставайтесь на раздаче! Для того, чтобы скачать сам торрент-файл (который видит больше источников), а также для того, чтобы поблагодарить релизера, вам необходимо зарегистрироваться. Если регистрироваться лень - вы можете также попробовать скачать релиз по нашим партнерским ссылкам ниже.

[underverse.su].t52727.torrent
Трекер: Зарегистрирован   [ 18.03.2015 08:58 ]  

Статус: % на проверке (by Паукан at 18.03.2015 13:53)
Поблагодарили: 3 человека
Тип торрента: публичный - доступные источники с открытых трекеров: 
Размер: 1,78 GB (занимает 0,41 DVDR, для записи нужно 1 болванка DVDR/RW)
 
 


Последний раз редактировалось: vsif (18.03.2015 13:25), всего редактировалось 1 раз

18-Мар-2015 09:23

Топик был перенесен из форума Документальные фильмы HQ в форум Исторические фильмы


Паукан
 

Паукан Пол:Муж

18-Мар-2015 09:23

1. Обложка?
2. Скриншоты?

vsif 

18-Мар-2015 11:13

а так нельзя?

Паукан Пол:Муж

18-Мар-2015 11:22

Нет, правила есть правила.

vsif 

18-Мар-2015 12:00

блин, ну мона вечером, щя некада!!!

vsif 

18-Мар-2015 13:36

уффф, проверяйте!

Паукан Пол:Муж

18-Мар-2015 13:54

Скриншоты не оригинального размера. В параметрах видео написано 1024х768 а вставлены в 1360х768
Где правда?

vsif 

18-Мар-2015 14:16

вредный ты!
там медиа-инфо - она не врёт

DrBond Пол:Муж

20-Мар-2015 21:59

О МАЙ Готт! Это же творение самого Энтони Баттс - Антоха Батон по нашему. Чудак попал в книгу рекордов гинесса как режиссер самого тупого документального фильма в 2010 году "После апокалипсиса".
Надо про ДНР посмотреть, стопудово продолжение апокалипсиса!!!

alexander-meПол:Муж

22-Мар-2015 09:28

Фильм о тех, кто убивает мирных жителей!!! Не желательно смотреть!!!

xaoctheweb Пол:Муж

22-Мар-2015 17:16

alexander-mex
Дядя, ты дурак? Хотя высер британца смотреть, наверное, и вправду нежелательно. Вряд ли там есть хоть толика объективности...

qqqqqq34 Пол:Муж

23-Мар-2015 16:50

Бедный Режиссер, оператор, продюсер Энтони Баттс, я ведь посмотрю :beer: .

qqqqqq34 Пол:Муж

23-Мар-2015 19:16

Полтора месяца съёмок и Британский винигрет-нарезка из "эксклюзивных" кадров про то как бандиты захватывали власть в донецке. У-у-у какие... А ещё про то как им нравится война и после этого в видеоряд вставлены кадры жертв обстрела украинской армии, но почему-то без пояснения что эти кадры не работа донецких бандитов, а результат работы украинской артиллерии. Т.е. если человек ни когда не видел этих кадров раньше и не знает где они получены, он без особых усилий начинает считать донецких бандитов виновниками изображённого :Bravo: . Браво ЭНТОНИ. Твоё руководство будет довольно. Но мы не пальцем деланы и тоже знаем что такое монтаж, даже что такое не линейный монтаж, что такое создание требуемого образа, как компануется цепь событий, как ловят кадр, как его можно преподнести, в след за чем или перед чем, что лучше не показывать или не коментировать (во избежание претензий к фоновому вранью) - как последний скриншот. Статуэтка Джейн Пссаки вам обеспецена :lol: , мои поздравления :Bravo:, А ещё медаль конгресса :ROFL: , как же я мог забыть...

daysekr 

23-Сен-2015 14:14

Встаньте на раздачу, пожаааалуйста

Яндекс.Метрика powered by Sphinx


В Н И М А Н И Е
Сайт не распространяет и не хранит электронные версии произведений, а лишь бесплатно и без коммерческой выгоды (не требуя взамен платы,
SMS и т.д.) предоставляет доступ к создаваемому пользователями каталогу ссылок на торрент-файлы, которые содержат только списки хеш-сумм.
Убедительная просьба с жалобами обращаться напрямую к пользователю, разместившему торрент файл.

Вверх