Loading...
Error

Марш-Бросок 3: Охота на "Охотника" (1-4 серии из 4) (Владимир Кильбург) [2015 г., Криминал, SatRip]

Статистика раздачи
Размер:  2,41 GB   |    Зарегистрирован:  1 год 10 месяцев   |    Скачан:  45 раз

Полного источника не было: 1 месяц 10 дней

Сидов:  0  |  0 KB/s  ]   Личеров:  0  |  0 KB/s  ]

* - сиды/пиры с внешних источников

   
 
Автор Сообщение

nemos Пол:Муж

18-Мар-2015 07:10

Марш-Бросок 3: Охота на "Охотника"


Год выпуска: 2015
Жанр: Криминал
Страна: Россия
Режиссер: Владимир Кильбург
В ролях: Илья Соколовский, Виктория Кобленко, Михаил Богдасаров, Борис Хвошнянский, Михаил Горевой, Евгений Ермаков, Игорь Филиппов, Сергей Легостаев, Карина Андоленко, Лера Горин, Александр Армер, Александр Арефьев, Андрей Карако, Сергей Колесников, Александр Тютин, Сергей Дедов, Екатерина Преображенская, Олег Морозов, Михаил Вологдин, Дмитрий Бобров, Артём Кобзев, Маргарита Другаль, Михаил Осипов, Олег Сурнов
Сюжет фильма:
Каждый день на улицы наших городов выходят десятки особо опасных преступников. Обнаружить и обезвредить криминальные структуры берется элитная команда бойцов спецназа под руководством командира майора Александра Буйды... «Крестный отец» русской мафии Усманов прилетает в Астрахань из Одессы для встречи с местным «смотрящим» Рауфом. Об этом становится известно ФСБ. Авторитетов пытаются захватить. Усманова арестовывают, Рауфу удается улизнуть. Операцией руководит агент Буйда.


Качество видео: SatRip

Продолжительность: 00:50:37 серия
Формат: AVI
Видео: DivX, 720x400, 1 700 kbps
Аудио: русский, MP3 48000Hz, stereo, 128 kbps

Код:

E:\Фильмы-1\Ohota.na.ohotnika.SATRip\Ohota.na.ohotnika.04.avi
   General
      Complete name : E:\Фильмы-1\Ohota.na.ohotnika.SATRip\Ohota.na.ohotnika.04.avi
      Format : AVI
      Format/Info : Audio Video Interleave
      File size : 668 MiB
      Duration : 50mn 37s
      Overall bit rate : 1 845 Kbps
   Video #0
      ID : 0
      Format : MPEG-4 Visual
      Format settings, BVOP : Yes
      Format settings, QPel : No
      Format settings, GMC : No warppoints
      Format settings, Matrix : Default (H.263)
      Codec ID : DX50
      Codec ID/Hint : DivX 5
      Duration : 50mn 37s
      Bit rate : 1 700 Kbps
      Width : 720 pixels
      Height : 400 pixels
      Display aspect ratio : 16:9
      Frame rate : 25.000 fps
      Color space : YUV
      Chroma subsampling : 4:2:0
      Bit depth : 8 bits
      Scan type : Progressive
      Compression mode : Lossy
      Bits/(Pixel*Frame) : 0.236
      Stream size : 616 MiB (92%)
      Writing library : Intel(R) MPEG-4 encoder based on Intel(R) IPP 6.1 build 137.20[6.1.137.763]
   Audio #1
      ID : 1
      Format : MPEG Audio
      Format version : Version 1
      Format profile : Layer 3
      Mode : Joint stereo
      Mode extension : MS Stereo
      Codec ID : 55
      Codec ID/Hint : MP3
      Duration : 50mn 37s
      Bit rate mode : Constant
      Bit rate : 128 Kbps
      Channel(s) : 2 channels
      Sampling rate : 48.0 KHz
      Compression mode : Lossy
      Stream size : 46.4 MiB (7%)
      Alignment : Aligned on interleaves
      Interleave, duration : 24 ms (0.60 video frame)
      Writing library : LAME3.98.2
picpicpicpicpicpic
Для увеличения картинки щелкните мышкой по превью

Этот торрент недоступен для скачивания без регистрации, однако доступен по публичной magnet-ссылке (источники с публичных трекеров). Перед использованием ссылки прочтите, пожалуйста Пользовательское соглашение, а также как можно дольше оставайтесь на раздаче! Для того, чтобы скачать сам торрент-файл (который видит больше источников), а также для того, чтобы поблагодарить релизера, вам необходимо зарегистрироваться. Если регистрироваться лень - вы можете также попробовать скачать релиз по нашим партнерским ссылкам ниже.

[underverse.su].t52726.torrent
Трекер: Зарегистрирован   [ 18.03.2015 07:10 ]  

Статус: проверено (by nemos at 18.03.2015 07:41)
Поблагодарили: 2 человека
Тип торрента: публичный - доступные источники с открытых трекеров: 
Размер: 2,41 GB (занимает 0,55 DVDR, для записи нужно 1 болванка DVDR/RW)
 
 
Похожие темы
Форум Тема Автор Торрент Отв. Посл. сооб.
Наше кино [DVDRip, Low-Res HDRip, и т.д.] Марш-бросок (Николай Стамбула) [2003 г., боевик, драма, мелодрама, военный, DVDRip] nemos
4 | 0

1 | 1527

60

14.06.2013 10:02

xUSSR сериалы Марш-бросок 2: Особые обстоятельства / Серии 1-2 (2) (Владимир Янковский) [2013 г., Драма, SatRip] Чертёнок
2 | 0

0 | 699

42

12.06.2013 15:23

Наше кино [HDDVDRip / BDRip / WEB-DL / HDTV 1080/720р] Марш-бросок 2: Особые обстоятельства / Серии 1-2 (2) (Владимир Янковский) [2013 г., Боевик, Криминал, Приключения, HDTV 1080p] nemos
0 | 0

2 | 2864

74

29.06.2013 09:49

xUSSR сериалы [BD / Remux / BDRip / WEB-DL / HDTV 1080/720р] Марш-Бросок 3: Охота на "Охотника" (2 серии из 2) (Владимир Кильбург) [2015 г., Криминал, HDTVRip 1080i] nemos
2 | 0

0 | 805

10

18.03.2015 06:52


Яндекс.Метрика powered by Sphinx


В Н И М А Н И Е
Сайт не распространяет и не хранит электронные версии произведений, а лишь бесплатно и без коммерческой выгоды (не требуя взамен платы,
SMS и т.д.) предоставляет доступ к создаваемому пользователями каталогу ссылок на торрент-файлы, которые содержат только списки хеш-сумм.
Убедительная просьба с жалобами обращаться напрямую к пользователю, разместившему торрент файл.

Вверх