Loading...
Error

Родина (Серии 1-12 из 12) (Павел Лунгин) [2015 г., драма, детектив, SatRip]

Статистика раздачи
Размер:  8,29 GB   |    Зарегистрирован:  1 год 8 месяцев   |    Скачан:  74 раза
Сидов:  1  |  0 KB/s  ]   Личеров:  0  |  0 KB/s  ]

* - сиды/пиры с внешних источников

   
 
Автор Сообщение

nemos Пол:Муж

16-Мар-2015 17:47


Год выпуска: 16 марта 2015
Жанр: драма, детектив
Страна: Россия
Режиссер: Павел Лунгин
В ролях: Владимир Машков (Алексей Брагин), Виктория Исакова (Анна Зимина), Мария Миронова, Сергей Маковецкий (Михаил Вольский), Андрей Мерзликин, Мария Шалаева, Тимофей Трибунцев, Валериу Андриуцэ, Алиса Хазанова, Илья Исаев (Багмет, полковник КТЦ), Аркадий Парсегов (Муса), Софья Хилькова

Сюжет фильма:
В центре сюжета - противостояние майора Алексея Брагина и эксперта-аналитика контртеррористического центра - Анны Зиминой.
В ходе спецоперации на Северном Кавказе уничтожен лагерь по подготовке террористов и захвачен бункер, в котором обнаружен изможденный, прикованный к стене, заросший бородой человек. Это майор, Алексей Брагин. Шесть лет назад попав в засаду и потеряв большую часть товарищей, Брагин попадает в плен. Его признают пропавшим без вести. Уезжая в последнюю командировку, Брагин оставил в Москве семью - жену Елену, трехлетнего сына Ивана и девятилетнюю дочь Катю.
Теперь он возвращается в мирную жизнь, где его уже, к сожалению, перестали ждать. Брагин пытается восстановить отношения с женой и дочерью, сблизиться с сыном, но кроме очевидных сложностей, мы видим и понимаем, что у него есть какая-то тайна, которую он тщательно скрывает даже от самых близких.
Несмотря на ореол героя, после первых же допросов Брагина, Анна Зимина начинает подозревать, что тот завербован террористами. Основываясь на собственном опыте и интуиции, Анна старается разгадать тайну Брагина.


Качество видео: SatRip

Продолжительность: 01:07:54 (Серия)
Формат: AVI
Видео: XviD, 720x400, 1871 kbps
Аудио: русский, AC3 2.0, 192 kbps

Код:

E:\Rodina\Rodina.01.SATRip.avi
   General
      Complete name : E:\Rodina\Rodina.01.SATRip.avi
      Format : AVI
      Format/Info : Audio Video Interleave
      File size : 1 007 MiB
      Duration : 1h 7mn
      Overall bit rate : 2 073 Kbps
      Writing application : VirtualDubMod 1.5.10.3 | www.virtualdub-fr.org || (build 2550/release)
      Writing library : VirtualDub build 35491/release
   Video #0
      ID : 0
      Format : MPEG-4 Visual
      Format profile : Advanced Simple@L5
      Format settings, BVOP : 2
      Format settings, QPel : No
      Format settings, GMC : No warppoints
      Format settings, Matrix : Default (H.263)
      Codec ID : XVID
      Codec ID/Hint : XviD
      Duration : 1h 7mn
      Bit rate : 1 871 Kbps
      Width : 720 pixels
      Height : 400 pixels
      Display aspect ratio : 16:9
      Frame rate : 25.000 fps
      Color space : YUV
      Chroma subsampling : 4:2:0
      Bit depth : 8 bits
      Scan type : Progressive
      Compression mode : Lossy
      Bits/(Pixel*Frame) : 0.260
      Stream size : 909 MiB (90%)
      Writing library : XviD 1.2.1 (UTC 2008-12-04)
   Audio #1
      ID : 1
      Format : AC-3
      Format/Info : Audio Coding 3
      Mode extension : CM (complete main)
      Format settings, Endianness : Big
      Codec ID : 2000
      Duration : 1h 7mn
      Bit rate mode : Constant
      Bit rate : 192 Kbps
      Channel(s) : 2 channels
      Channel positions : Front: L R
      Sampling rate : 48.0 KHz
      Bit depth : 16 bits
      Compression mode : Lossy
      Stream size : 93.2 MiB (9%)
      Alignment : Split accross interleaves
      Interleave, duration : 40 ms (1.00 video frame)
      Interleave, preload duration : 500 ms
picpicpicpicpicpicpic
Для увеличения картинки щелкните мышкой по превью

Этот торрент недоступен для скачивания без регистрации, однако доступен по публичной magnet-ссылке (источники с публичных трекеров). Перед использованием ссылки прочтите, пожалуйста Пользовательское соглашение, а также как можно дольше оставайтесь на раздаче! Для того, чтобы скачать сам торрент-файл (который видит больше источников), а также для того, чтобы поблагодарить релизера, вам необходимо зарегистрироваться. Если регистрироваться лень - вы можете также попробовать скачать релиз по нашим партнерским ссылкам ниже.

[underverse.su].t53126.torrent
Трекер: Зарегистрирован   [ 26.03.2015 17:46 ]  

Статус: проверено (by nemos at 26.03.2015 17:46)
Поблагодарили: 14 человек
Тип торрента: публичный - доступные источники с открытых трекеров: 
Размер: 8,29 GB (занимает 1,89 DVDR, для записи нужно 2 болванки DVDR/RW)
 
 
Похожие темы
Форум Тема Автор Торрент Отв. Посл. сооб.
xUSSR сериалы [BD / Remux / BDRip / WEB-DL / HDTV 1080/720р] Родина (Серии 1-12 из 12) (Павел Лунгин) [ 2015 г., драма, детектив, HDTV 1080i] nemos
1 | 1

0 | 1991

34

18.03.2015 15:43



Последний раз редактировалось: nemos (26.03.2015 17:46), всего редактировалось 7 раз(а)

Яндекс.Метрика powered by Sphinx


В Н И М А Н И Е
Сайт не распространяет и не хранит электронные версии произведений, а лишь бесплатно и без коммерческой выгоды (не требуя взамен платы,
SMS и т.д.) предоставляет доступ к создаваемому пользователями каталогу ссылок на торрент-файлы, которые содержат только списки хеш-сумм.
Убедительная просьба с жалобами обращаться напрямую к пользователю, разместившему торрент файл.

Вверх