Loading...
Error

Бёрдмэн / Birdman (Алехандро Гонсалес Иньярриту) [2014 г., драма, комедия, BDRip] Dub (Rus,Ukr) + Original + Sub (Rus,Ukr,Eng) HQ Underverse

Статистика раздачи
Размер:  2,17 GB   |    Зарегистрирован:  1 год 8 месяцев   |    Скачан:  12 раз
Сидов:  1  |  0 KB/s  ]   Личеров:  0  |  0 KB/s  ]

* - сиды/пиры с внешних источников

   
 
Автор Сообщение

HQ Underverse 

12-Мар-2015 15:33

Бёрдмэн / Birdman


Год выпуска: 2014
Жанр: драма, комедия
Страна: США
Режиссер: Алехандро Гонсалес Иньярриту
В ролях: Майкл Китон, Эдвард Нортон, Эмма Стоун, Наоми Уоттс, Зак Галифианакис, Андреа Райзборо, Эми Райан, Линдси Дункан, Дэмиэн Янг, Джереми Шамос, Кенни Чин, Жамаль Гаррисон-Лоу
Сюжет фильма:
В центре сюжета бывший актер, некогда сыгравший роль популярного супергероя Бёрдмэна, и теперь, переступая через свое эго, он решает принять участие в новой бродвейской постановке с целью вернуть себе былую славу, блеск и величие.

  • Мировая премьера: 27 августа 2014
  • Российская премьера: 22 января 2015, «Двадцатый Век Фокс СНГ»

|
Качество видео: BDRip

Продолжительность: 01:59:17
Формат: avi
Видео: XviD, 720x384, 2142 kbps
Аудио #1: русский, дублированный [лицензия], AC3 5.1, 448 kbps
Аудио #2: английский, оригинал, AC3 5.1, 448 kbps (отдельным файлом: здесь)
Аудио #3: украинский, дублированный [лицензия], AC3 5.1, 448 kbps (отдельным файлом: здесь)
Субтитры #1: внешние, SRT, украинский
Субтитры #2: внешние, SRT, английский
Субтитры #3: внешние, SRT, русский

Код:

General
Complete name                    : Y:\Бердмен\Birdman.2014.BDRip.XviD.AC3.Rus.D.HQ.Underverse.avi
Format                           : AVI
Format/Info                      : Audio Video Interleave
Format profile                   : OpenDML
File size                        : 2.17 GiB
Duration                         : 1h 59mn
Overall bit rate                 : 2 602 Kbps
Writing application              : VirtualDubMod 1.5.10.3 | www.virtualdub-fr.org || (build 2550/release)
Writing library                  : VirtualDubMod build 2550/release

Video
ID                               : 0
Format                           : MPEG-4 Visual
Format profile                   : Streaming Video@L1
Format settings, BVOP            : Yes
Format settings, QPel            : No
Format settings, GMC             : No warppoints
Format settings, Matrix          : Custom
Codec ID                         : XVID
Codec ID/Hint                    : XviD
Duration                         : 1h 59mn
Bit rate                         : 2 142 Kbps
Width                            : 720 pixels
Height                           : 384 pixels
Display aspect ratio             : 1.875
Frame rate                       : 23.976 fps
Resolution                       : 24 bits
Colorimetry                      : 4:2:0
Scan type                        : Progressive
Bits/(Pixel*Frame)               : 0.323
Stream size                      : 1.79 GiB (82%)
Writing library                  : XviD 66

Audio
ID                               : 1
Format                           : AC-3
Format/Info                      : Audio Coding 3
Codec ID                         : 2000
Duration                         : 1h 59mn
Bit rate mode                    : Constant
Bit rate                         : 448 Kbps
Channel(s)                       : 6 channels
Channel positions                : Front: L C R, Surround: L R, LFE
Sampling rate                    : 48.0 KHz
Stream size                      : 382 MiB (17%)
Alignment                        : Split accross interleaves
Interleave, duration             : 42 ms (1.00 video frame)
Interleave, preload duration     : 500 ms

General
Complete name                    : Y:\Бердмен\Birdman.2014.BDRip.XviD.AC3.Rus.D.HQ.Underverse.UKR.ac3
Format                           : AC-3
Format/Info                      : Audio Coding 3
File size                        : 382 MiB
Duration                         : 1h 59mn
Overall bit rate                 : 448 Kbps

Audio
Format                           : AC-3
Format/Info                      : Audio Coding 3
Duration                         : 1h 59mn
Bit rate mode                    : Constant
Bit rate                         : 448 Kbps
Channel(s)                       : 6 channels
Channel positions                : Front: L C R, Surround: L R, LFE
Sampling rate                    : 48.0 KHz
Stream size                      : 382 MiB (100%)

General
Complete name                    : Y:\Бердмен\Birdman.2014.BDRip.XviD.AC3.Rus.D.HQ.Underverse.ENG.ac3
Format                           : AC-3
Format/Info                      : Audio Coding 3
File size                        : 382 MiB
Duration                         : 1h 59mn
Overall bit rate                 : 448 Kbps

Audio
Format                           : AC-3
Format/Info                      : Audio Coding 3
Duration                         : 1h 59mn
Bit rate mode                    : Constant
Bit rate                         : 448 Kbps
Channel(s)                       : 6 channels
Channel positions                : Front: L C R, Surround: L R, LFE
Sampling rate                    : 48.0 KHz
Stream size                      : 382 MiB (100%)

Релиз группы:

picpicpic
Для увеличения картинки щелкните мышкой по превью

Этот торрент недоступен для скачивания без регистрации, однако доступен по публичной magnet-ссылке (источники с публичных трекеров). Перед использованием ссылки прочтите, пожалуйста Пользовательское соглашение, а также как можно дольше оставайтесь на раздаче! Для того, чтобы скачать сам торрент-файл (который видит больше источников), а также для того, чтобы поблагодарить релизера, вам необходимо зарегистрироваться. Если регистрироваться лень - вы можете также попробовать скачать релиз по нашим партнерским ссылкам ниже.

[underverse.su].t52539.torrent
Трекер: Зарегистрирован   [ 12.03.2015 15:33 ]  

Статус: проверено (by HQ Underverse at 12.03.2015 15:35)
Поблагодарили: 1 человек
Тип торрента: публичный - доступные источники с открытых трекеров: 
Размер: 2,17 GB (занимает 1/2 DVDR, для записи нужно 1 болванка DVDR/RW)
 
 
Похожие темы
Форум Тема Автор Торрент Отв. Посл. сооб.
T Зарубежное кино [DVDRip, Low-Res HDRip, и т.д.] Бёрдмэн / Birdman (Алехандро Гонсалес Иньярриту) [2014 г., драма, криминал, BDRip] Dub (iTunes) 90ytr90
3 | 0

0 | 745

40

19.02.2015 06:10

Зарубежное кино [DVDRip, Low-Res HDRip, и т.д.] Бёрдмэн / Birdman (Алехандро Гонсалес Иньярриту) [2014 г., драма, криминал, BDRip] Dub 90ytr90
4 | 0

0 | 596

30

28.02.2015 16:18

Зарубежное кино [DVDRip, Low-Res HDRip, и т.д.] Бёрдмэн / Birdman (Алехандро Гонсалес Иньярриту) [2014 г., драма, комедия, BDRip 720p] Dub (Rus) + 2xAVO (Матвеев, Есарев) + Original (Eng) + Subs 90ytr90
42 | 0

0 | 528

4

28.02.2015 16:46

Зарубежное кино [DVDRip, Low-Res HDRip, и т.д.] Бёрдмэн / Birdman (Алехандро Гонсалес Иньярриту) [2014 г., драма, криминал, BDRip] Dub 90ytr90
41 | 0

0 | 492

6

28.02.2015 17:15

Зарубежное кино [DVDRip, Low-Res HDRip, и т.д.] Бёрдмэн / Birdman (Алехандро Гонсалес Иньярриту) [2014 г., драма, комедия, HDRip] Dub + Original (Eng) + Subs 90ytr90
1 | 0

0 | 530

8

28.02.2015 19:19

Зарубежное кино [DVDRip, Low-Res HDRip, и т.д.] Бёрдмэн / Birdman (Алехандро Гонсалес Иньярриту) [2014 г., драма, комедия, BDRip-AVC] Dub (Rus) + AVO (Матвеев) + Original (Eng) + Subs 90ytr90
1 | 0

0 | 644

12

01.03.2015 09:01

T Зарубежное кино [HDDVDRip / BDRip / WEB-DL / HDTV 1080/720р] Бёрдмэн / Birdman (Алехандро Гонсалес Иньярриту) [2014 г., драма, комедия, WEB-DL 720p] Dub (чистый звук) + Original (Eng) + Sub (Eng) 90ytr90
2 | 0

0 | 885

67

03.02.2015 17:11

T Зарубежное кино [HDDVDRip / BDRip / WEB-DL / HDTV 1080/720р] Бёрдмэн / Birdman (Алехандро Гонсалес Иньярриту) [2014 г., драма, комедия, BDRip 720p] AVO (Есарев) + Original (Eng) + Sub (Rus, Eng) 90ytr90
1 | 0

0 | 607

3

18.02.2015 13:18

T Зарубежное кино [HDDVDRip / BDRip / WEB-DL / HDTV 1080/720р] Бёрдмэн / Birdman (Алехандро Гонсалес Иньярриту / Alejandro Gonzalez Inarritu) [2014 г., драма, комедия, BDRip 720p] Dub (iTunes) + AVO (Есарев) + Original (Eng) + Sub (Rus, Eng) 90ytr90
8 | 0

0 | 847

18

19.02.2015 06:25

T Зарубежное кино [HDDVDRip / BDRip / WEB-DL / HDTV 1080/720р] Бёрдмэн / Birdman (Алехандро Гонсалес Иньярриту) [2014 г., драма, комедия, BDRip 720p] Dub (iTunes) + Sub (Rus, Eng) 90ytr90
0 | 0

0 | 635

19

20.02.2015 17:31

Паукан Пол:Муж

27-Мар-2015 12:38

в скором времени восстановимся после аварии и сиды появятся 8)

Яндекс.Метрика powered by Sphinx


В Н И М А Н И Е
Сайт не распространяет и не хранит электронные версии произведений, а лишь бесплатно и без коммерческой выгоды (не требуя взамен платы,
SMS и т.д.) предоставляет доступ к создаваемому пользователями каталогу ссылок на торрент-файлы, которые содержат только списки хеш-сумм.
Убедительная просьба с жалобами обращаться напрямую к пользователю, разместившему торрент файл.

Вверх