Loading...
Error

Мемфисская красавица / Мемфисская красотка / Красавица Мемфиса / Memphis Belle (Майкл Кэйтон-Джонс / Michael Caton-Jones) [1990 г., военный, драма, HDTVRip]

Статистика раздачи
Размер:  2,18 GB   |    Зарегистрирован:  6 лет 8 месяцев   |    Скачан:  3 раза

Полного источника не было: 4 года 4 месяца

Сидов:  0  |  0 KB/s  ]   Личеров:  0  |  0 KB/s  ]

* - сиды/пиры с внешних источников

   
 
Автор Сообщение

GUree Пол:Муж

25-Июл-2009 00:33

Мемфисская красавица / Мемфисская красотка / Красавица Мемфиса / Memphis Belle


Год выпуска: 1990
Жанр: военный, драма
Страна: Великобритания
Режиссер: Майкл Кэйтон-Джонс / Michael Caton-Jones
В ролях: Мэттью Модайн / Matthew Modine, Эрик Штолц / Eric Stoltz, Тэйт Донован / Tate Donovan, Д. Б. Суини / D. B. Sweeney, Билли Зэйн / Billy Zane, Шон Эстин / Sean Astin, Джон Литгоу / John Lithgow, Дэвид Стрэтэйрн / David Strathairn

Сюжет фильма: В основу картины положен реальный эпизод из истории Второй мировой войны, который был впервые документально изложен легендарным Уилльямом Уайлером.
Бомбардировщик Б-17 "Мемфисская красавица" сделал двадцать четыре боевых вылета без единой царапины. Еще один вылет, и экипаж может отправляться домой. Начальство планирует использовать их пример для пропаганды и поднятия настроения в Штатах. Фильм рассказывает о последнем и самом опасном задании экипажа — бомбардировке Бремена.


  • Мировая премьера: 7 сентября 1990


Личная оценка: 10 - всем советую

Качество видео: HDTVRip

Продолжительность: 01:42:41
Видео: кодек: x264, формат: mkv, размер кадра: 1024x576, битрейт: 2215 kbps
Аудио #1: язык: русский, перевод: одноголосный закадровый (Ю. Живов), кодек: AC3 2.0, битрейт: 192 kbps
Аудио #2: язык: русский, перевод: дублированный (дубляж), кодек: AC3 2.0, битрейт: 192 kbps
Аудио #3: язык: английский, перевод: оригинал, кодек: AC3 5.1, битрейт: 384 kbps
Субтитры #1: тип: вшитые отключаемые, язык: русский, формат: S_TEXT/UTF8
Субтитры #2: тип: вшитые отключаемые, язык: английский, формат: S_TEXT/UTF8

Семпл 1 на multi-up; Семпл 1 на dump
Семпл 2 на multi-up; Семпл 2 на dump

Релиз группы:






General
Complete name : Memphis_Belle.1990.HDTVRip.AVC.mkv
Format : Matroska
File size : 2.18 GiB
Duration : 1h 42mn
Overall bit rate : 3 044 Kbps
Movie name : -=GUree=-
Encoded date : UTC 2010-03-05 07:20:23
Writing application : mkvmerge v3.2.0 ('Beginnings') built on Feb 12 2010 16:46:17
Writing library : libebml v0.7.9 + libmatroska v0.8.1

Video
ID : 1
Format : AVC
Format/Info : Advanced Video Codec
Format profile : High@L4.1
Format settings, CABAC : Yes
Format settings, ReFrames : 8 frames
Muxing mode : Container profile=Unknown@4.1
Codec ID : V_MPEG4/ISO/AVC
Duration : 1h 42mn
Bit rate : 2 216 Kbps
Nominal bit rate : 2 275 Kbps
Width : 1 024 pixels
Height : 576 pixels
Display aspect ratio : 16:9
Frame rate : 25.000 fps
Resolution : 8 bits
Colorimetry : 4:2:0
Scan type : Progressive
Bits/(Pixel*Frame) : 0.150
Stream size : 1.59 GiB (73%)
Writing library : x264 core 79 r1342kMod e8501ef
Encoding settings : cabac=1 / ref=8 / deblock=1:-2:-1 / analyse=0x3:0x113 / me=tesa / subme=10 / psy=1 / psy_rd=1.0:0.4 / mixed_ref=1 / me_range=32 / chroma_me=1 / trellis=2 / 8x8dct=1 / cqm=0 / deadzone=21,11 / chroma_qp_offset=-4 / threads=6 / nr=0 / decimate=0 / mbaff=0 / constrained_intra=0 / bframes=6 / b_pyramid=0 / b_adapt=2 / b_bias=0 / direct=3 / wpredb=1 / wpredp=2 / keyint=250 / keyint_min=25 / scenecut=40 / rc_lookahead=60 / rc=2pass / mbtree=1 / bitrate=2275 / ratetol=1.0 / qcomp=0.60 / qpmin=10 / qpmax=51 / qpstep=4 / cplxblur=20.0 / qblur=0.5 / vbv_maxrate=50000 / vbv_bufsize=50000 / ip_ratio=1.40 / aq=1:1.00

Audio #1
ID : 2
Format : AC-3
Format/Info : Audio Coding 3
Codec ID : A_AC3
Duration : 1h 42mn
Bit rate mode : Constant
Bit rate : 192 Kbps
Channel(s) : 2 channels
Channel positions : Front: L R
Sampling rate : 48.0 KHz
Stream size : 141 MiB (6%)
Title : AC3 2.0 192Kb/s (Dub)
Language : Russian

Audio #2
ID : 3
Format : AC-3
Format/Info : Audio Coding 3
Codec ID : A_AC3
Duration : 1h 42mn
Bit rate mode : Constant
Bit rate : 192 Kbps
Channel(s) : 2 channels
Channel positions : Front: L R
Sampling rate : 48.0 KHz
Stream size : 141 MiB (6%)
Title : AC3 2.0 192Kb/s (Jivov)
Language : Russian

Audio #3
ID : 4
Format : AC-3
Format/Info : Audio Coding 3
Codec ID : A_AC3
Duration : 1h 42mn
Bit rate mode : Constant
Bit rate : 384 Kbps
Channel(s) : 6 channels
Channel positions : Front: L C R, Side: L R, LFE
Sampling rate : 48.0 KHz
Stream size : 282 MiB (13%)
Title : AC3 5.1 384Kb/s
Language : English

Text #1
ID : 5
Format : UTF-8
Codec ID : S_TEXT/UTF8
Codec ID/Info : UTF-8 Plain Text
Language : Russian

Text #2
ID : 6
Format : UTF-8
Codec ID : S_TEXT/UTF8
Codec ID/Info : UTF-8 Plain Text
Language : English

Этот торрент недоступен для скачивания без регистрации, однако доступен по публичной magnet-ссылке (источники с публичных трекеров). Перед использованием ссылки прочтите, пожалуйста Пользовательское соглашение, а также как можно дольше оставайтесь на раздаче! Для того, чтобы скачать сам торрент-файл (который видит больше источников), а также для того, чтобы поблагодарить релизера, вам необходимо зарегистрироваться. Если регистрироваться лень - вы можете также попробовать скачать релиз по нашим партнерским ссылкам ниже.

[underverse.su].t4640.torrent
Трекер: Зарегистрирован   [ 21.03.2010 00:53 ]  

Статус: проверено (by GUree at 21.03.2010 00:54)
Поблагодарили: 1 человек
Тип торрента: публичный - доступные источники с открытых трекеров: 
Размер: 2,18 GB (занимает 1/2 DVDR, для записи нужно 1 болванка DVDR/RW)
 
 


Последний раз редактировалось: GUree (21.03.2010 01:16), всего редактировалось 4 раз(а)

timoha Пол:Муж

06-Окт-2009 05:40

спасибо за реализ ! Вернитесь плиз на раздачу

GUree Пол:Муж

09-Мар-2010 13:26

Друзья! Готов Рип HDTV 1024х576, качеством несравненно лучше этого...
http://comparescreenshots.slicx.com/comparison/39585/
Поменял!!!!

sexfuck 

21-Май-2011 04:43

спасиб

Яндекс.Метрика powered by Sphinx


В Н И М А Н И Е
Сайт не распространяет и не хранит электронные версии произведений, а лишь бесплатно и без коммерческой выгоды (не требуя взамен платы,
SMS и т.д.) предоставляет доступ к создаваемому пользователями каталогу ссылок на торрент-файлы, которые содержат только списки хеш-сумм.
Убедительная просьба с жалобами обращаться напрямую к пользователю, разместившему торрент файл.

Вверх