Loading...
Error

Принц / The Prince (Брайан А. Миллер) [2014 г., боевик, триллер, BDRip-AVC] DVO [Сладкая парочка, Savetig Studios] + VO [Andi] + Original + Sub (Rus,Eng)

Статистика раздачи
Размер:  1,9 GB   |    Зарегистрирован:  1 год 8 месяцев   |    Скачан:  25 раз

Полного источника не было: 1 год

Сидов:  0  |  0 KB/s  ]   Личеров:  0  |  0 KB/s  ]

* - сиды/пиры с внешних источников

   
 
Автор Сообщение

Паукан Пол:Муж

11-Мар-2015 13:34

Принц / The Prince


Название: Принц
Оригинальное название: The Prince
Год выхода: 2014
Жанр: Боевик, триллер
Режиссер-постановщик: Брайан А. Миллер
В главных ролях: Джейсон Патрик, Брюс Уиллис, Джон Кьюсак, Фифти Сент, Рэйн, Джессика Лаундес, Джонатон Шек, Джина Мантенья

Описание:
Много лет назад Пол Брэнан совершил страшную ошибку, в результате которой погибли мать и ребенок. После этой трагедии он уехал из Нового Орлеана и поселился в Чикаго, где устроился на работу механиком в автомастерской. Все эти годы он пытался забыть о прошлом, но вскоре ему вновь пришлось вернуться в Новый Орлеан, после того как неизвестные похитили его дочь Бэт. Следы похитителей привели его именно в тот город, о котором он долгое время пытался не вспоминать. Пытаясь найти дочь, Полу удается установить, что ее похищение совершил преступник по кличке «Фармацевт», тесно связанный с очень опасным человеком Омаром Казиром, которому много лет назад он перешел дорогу...



Страна: США
Студия: Aperture Entertainment, Emmett/Furla Films, Grindstone Entertainment Group, Oasis Films
Продолжительность: 01:30:40
Перевод: Любительский двухголосый (Сладкая парочка), любительский двухголосый (Savetig Studios), любительский одноголосый (Andi)

Качество: BDRip-AVC
Видео: MPEG-4 AVC, 1588 Кбит/с, 1024x426
Звук: Русский (AC3, 6 ch, 384 Кбит/с), (AC3, 2 ch, 192 Кбит/с), английский (AC3, 6 ch, 448 Кбит/c)

Субтитры: Русские, английские
аудио 1: Любительский двухголосый - Сладкая парочка (AC3, 6 ch, 384 Кбит/с)
аудио 2: Любительский двухголосый - Savetig Studios (AC3, 2 ch, 192 Кбит/с)
аудио 3: Любительский одноголосый - Andi (AC3, 6 ch, 384 Кбит/с)
Русские субтитры: Notabenoid


General
Unique ID : 185699909487016450787147470381905765359 (0x8BB4806B2880101FB1BC1DFF860E63EF)
Complete name : C:The.Prince.2014.L2.L1.BDRip.AVC.ExKinoRay.mkv
Format : Matroska
Format version : Version 4 / Version 2
File size : 1.90 GiB
Duration : 1h 30mn
Overall bit rate : 2 997 Kbps
Movie name : The Prince 2014 from ExKinoRay
Encoded date : UTC 2015-03-10 19:15:13
Writing application : mkvmerge v6.6.0 ('The Edge Of The In Between') built on Dec 1 2013 17:55:00
Writing library : libebml v1.3.0 + libmatroska v1.4.1

Video
ID : 1
Format : AVC
Format/Info : Advanced Video Codec
Format profile : High@L4.1
Format settings, CABAC : Yes
Format settings, ReFrames : 10 frames
Codec ID : V_MPEG4/ISO/AVC
Duration : 1h 30mn
Bit rate : 1 588 Kbps
Width : 1 024 pixels
Height : 426 pixels
Display aspect ratio : 2.40:1
Frame rate mode : Constant
Frame rate : 23.976 fps
Color space : YUV
Chroma subsampling : 4:2:0
Bit depth : 8 bits
Scan type : Progressive
Bits/(Pixel*Frame) : 0.152
Stream size : 992 MiB (51%)
Title : Enigma-Vladislav71
Writing library : x264 core 133 r2334 a3ac64b
Encoding settings : cabac=1 / ref=10 / deblock=1:-2:-2 / analyse=0x3:0x113 / me=umh / subme=10 / psy=1 / psy_rd=1.05:0.15 / mixed_ref=1 / me_range=32 / chroma_me=1 / trellis=2 / 8x8dct=1 / cqm=0 / deadzone=21,11 / fast_pskip=0 / chroma_qp_offset=-3 / threads=12 / lookahead_threads=2 / sliced_threads=0 / nr=0 / decimate=0 / interlaced=0 / bluray_compat=0 / constrained_intra=0 / bframes=9 / b_pyramid=2 / b_adapt=2 / b_bias=0 / direct=3 / weightb=1 / open_gop=0 / weightp=2 / keyint=240 / keyint_min=23 / scenecut=40 / intra_refresh=0 / rc=2pass / mbtree=0 / bitrate=1588 / ratetol=1.0 / qcomp=0.60 / qpmin=0 / qpmax=51 / qpstep=4 / cplxblur=20.0 / qblur=0.5 / ip_ratio=1.40 / pb_ratio=1.30 / aq=1:1.00
Language : English
Default : Yes
Forced : No
Color primaries : BT.709
Transfer characteristics : BT.709
Matrix coefficients : BT.709

Audio #1
ID : 2
Format : AC-3
Format/Info : Audio Coding 3
Mode extension : CM (complete main)
Format settings, Endianness : Big
Codec ID : A_AC3
Duration : 1h 30mn
Bit rate mode : Constant
Bit rate : 384 Kbps
Channel(s) : 6 channels
Channel positions : Front: L C R, Side: L R, LFE
Sampling rate : 48.0 KHz
Bit depth : 16 bits
Compression mode : Lossy
Stream size : 249 MiB (13%)
Title : DVO (Sladkaya parochka)
Language : Russian
Default : Yes
Forced : No

Audio #2
ID : 3
Format : AC-3
Format/Info : Audio Coding 3
Mode extension : CM (complete main)
Format settings, Endianness : Big
Codec ID : A_AC3
Duration : 1h 30mn
Bit rate mode : Constant
Bit rate : 192 Kbps
Channel(s) : 2 channels
Channel positions : Front: L R
Sampling rate : 48.0 KHz
Bit depth : 16 bits
Compression mode : Lossy
Stream size : 125 MiB (6%)
Title : DVO (Savetig Studios)
Language : Russian
Default : No
Forced : No

Audio #3
ID : 4
Format : AC-3
Format/Info : Audio Coding 3
Mode extension : CM (complete main)
Format settings, Endianness : Big
Codec ID : A_AC3
Duration : 1h 30mn
Bit rate mode : Constant
Bit rate : 384 Kbps
Channel(s) : 6 channels
Channel positions : Front: L C R, Side: L R, LFE
Sampling rate : 48.0 KHz
Bit depth : 16 bits
Compression mode : Lossy
Stream size : 249 MiB (13%)
Title : VO (Andi)
Language : Russian
Default : No
Forced : No

Audio #4
ID : 5
Format : AC-3
Format/Info : Audio Coding 3
Mode extension : CM (complete main)
Format settings, Endianness : Big
Codec ID : A_AC3
Duration : 1h 30mn
Bit rate mode : Constant
Bit rate : 448 Kbps
Channel(s) : 6 channels
Channel positions : Front: L C R, Side: L R, LFE
Sampling rate : 48.0 KHz
Bit depth : 16 bits
Compression mode : Lossy
Stream size : 291 MiB (15%)
Language : English
Default : No
Forced : No

Text #1
ID : 6
Format : UTF-8
Codec ID : S_TEXT/UTF8
Codec ID/Info : UTF-8 Plain Text
Language : Russian
Default : No
Forced : No

Text #2
ID : 7
Format : UTF-8
Codec ID : S_TEXT/UTF8
Codec ID/Info : UTF-8 Plain Text
Language : English
Default : No
Forced : No

Text #3
ID : 8
Format : UTF-8
Codec ID : S_TEXT/UTF8
Codec ID/Info : UTF-8 Plain Text
Title : SHD
Language : English
Default : No
Forced : No

Menu
00:00:00.000 : en:00:00:00.000
00:06:34.894 : en:00:06:34.894
00:09:59.849 : en:00:09:59.849
00:14:47.220 : en:00:14:47.220
00:20:16.632 : en:00:20:16.632
00:25:11.593 : en:00:25:11.593
00:29:33.855 : en:00:29:33.855
00:36:03.036 : en:00:36:03.036
00:42:06.816 : en:00:42:06.816
00:49:44.899 : en:00:49:44.899
00:58:12.531 : en:00:58:12.531
01:05:17.122 : en:01:05:17.122
01:09:09.187 : en:01:09:09.187
01:13:44.211 : en:01:13:44.211
01:17:39.280 : en:01:17:39.280
01:26:11.750 : en:01:26:11.750
pic pic pic
Для увеличения картинки щелкните мышкой по превью

Этот торрент недоступен для скачивания без регистрации, однако доступен по публичной magnet-ссылке (источники с публичных трекеров). Перед использованием ссылки прочтите, пожалуйста Пользовательское соглашение, а также как можно дольше оставайтесь на раздаче! Для того, чтобы скачать сам торрент-файл (который видит больше источников), а также для того, чтобы поблагодарить релизера, вам необходимо зарегистрироваться. Если регистрироваться лень - вы можете также попробовать скачать релиз по нашим партнерским ссылкам ниже.

[underverse.su].t52489.torrent
Трекер: Зарегистрирован   [ 11.03.2015 13:34 ]  

Статус: проверено (by Паукан at 11.03.2015 13:34)
Поблагодарили: пока никто не поблагодарил...
Тип торрента: публичный - доступные источники с открытых трекеров: 
Размер: 1,9 GB (занимает 0,43 DVDR, для записи нужно 1 болванка DVDR/RW)
 
 
Похожие темы
Форум Тема Автор Торрент Отв. Посл. сооб.
T Зарубежное кино [DVDRip, Low-Res HDRip, и т.д.] Принц / The Prince (Брайан А Миллер) [2014 г., Боевик, Триллер, WEB-DLRip] VO (RUS, Andi) Ведьмочка
0 | 0

0 | 706

31

24.08.2014 06:51

T Зарубежное кино [DVDRip, Low-Res HDRip, и т.д.] Принц / The Prince (Брайан А. Миллер / Brian A Miller) [2014 г., боевик, триллер, WEB-DLRip-AVC] VO (Andi) + Sub (Eng) 90ytr90
12 | 0

0 | 589

8

25.08.2014 06:00

T Зарубежное кино [DVDRip, Low-Res HDRip, и т.д.] Принц / The Prince (Брайан А. Миллер / Brian A Miller) [2014 г., боевик, триллер, WEB-DLRip] DVO (Savetig Studios) + Original (Eng) 90ytr90
9 | 0

0 | 568

12

26.08.2014 05:17

T Зарубежное кино [DVDRip, Low-Res HDRip, и т.д.] Принц / The Prince (Брайан А. Миллер / Brian A Miller) [2014 г., боевик, триллер, WEB-DLRip-AVC] DVO (Savetig Studios) + Original (Eng) + Sub (Eng) 90ytr90
16 | 0

0 | 595

12

26.08.2014 05:29

Зарубежное кино [DVDRip, Low-Res HDRip, и т.д.] Принц / The Prince (Брайан А. Миллер) [2014 г., боевик, триллер, HDRip] MVO makkol
212 | 3

0 | 490

31

25.08.2015 13:10

T Зарубежное кино [HDDVDRip / BDRip / WEB-DL / HDTV 1080/720р] Принц / The Prince (Брайан А Миллер) [2014 г., Боевик, Триллер, WEB-DL 720p] VO (RUS, Andi) + Original (ENG) + Subs (ENG) Ведьмочка
11 | 1

0 | 648

19

24.08.2014 06:59

T Зарубежное кино [HDDVDRip / BDRip / WEB-DL / HDTV 1080/720р] Принц / The Prince (Брайан А. Миллер) [2014 г., боевик, триллер, WEB-DL 720p] DVO (Savetig Studios) + VO (Andi) + Original (Eng) + Sub (Eng) 90ytr90
9 | 0

0 | 549

10

26.08.2014 05:24

Зарубежное кино [HDDVDRip / BDRip / WEB-DL / HDTV 1080/720р] Принц / The Prince (Брайан А. Миллер) [2014 г., боевик, триллер, BDRip 720p] MVO + Original + Subs makkol
1 | 0

0 | 416

17

25.08.2015 13:22

Зарубежное кино [HDDVDRip / BDRip / WEB-DL / HDTV 1080/720р] Принц / The Prince (Брайан А. Миллер) [2014 г., боевик, триллер, BDRip 1080p] MVO + Original + Subs makkol
6 | 0

0 | 411

6

25.08.2015 13:39


Яндекс.Метрика powered by Sphinx


В Н И М А Н И Е
Сайт не распространяет и не хранит электронные версии произведений, а лишь бесплатно и без коммерческой выгоды (не требуя взамен платы,
SMS и т.д.) предоставляет доступ к создаваемому пользователями каталогу ссылок на торрент-файлы, которые содержат только списки хеш-сумм.
Убедительная просьба с жалобами обращаться напрямую к пользователю, разместившему торрент файл.

Вверх