Loading...
Error

Взрыв из прошлого (1-4 серия из 4) (Андрей Иванов) [2015 г., детектив, SatRip]

Статистика раздачи
Размер:  2,36 GB   |    Зарегистрирован:  1 год 9 месяцев   |    Скачан:  65 раз

Полного источника не было: 48 минут

Сидов:  0  |  0 KB/s  ]   Личеров:  0  |  0 KB/s  ]

* - сиды/пиры с внешних источников

   
 
Автор Сообщение

nemos Пол:Муж

07-Мар-2015 08:55

Взрыв из прошлого


Год выпуска: 2015
Жанр: детектив
Страна: Россия
Режиссер: Андрей Иванов
В ролях: Всеволод Цурило, Сергей Горобченко, Анастасия Микульчина, Геннадий Венгеров, Яна Сухова, Максим Ханжов
Сюжет фильма:
В жизнь удачливого бизнесмена Николая Ковалева прошлое ворвалось взрывом. На него, в прошлом майора спецназа, совершено покушение. Распутывая сложный клубок обстоятельств, он приходит к выводу, что за ним охотится его старый заклятый враг, криминальный авторитет Михась, который когда-то поклялся убить Ковалева и его боевую подругу Римму.

Ковалев бросается на поиски Михася. Здесь очень кстати ему оказывается помощь Риммы, когда-то влюбленной в него. Пройдя через множество препятствий, используя весь арсенал средств специальной подготовки, боевой дуэт все ближе подбирается к криминальному авторитету. Но им приходится отвечать на множество вопросов: где границы дозволенного, какова цена победы, что делать с любовью, внезапно догнавшей их?
Качество видео: SatRip

Продолжительность: 00:43:08 серия
Формат: AVI
Видео: XviD, 720x448 , 1 800 kbps
Аудио: русский, MP3 2.0, 128 kbps

Код:

E:\Фильмы-1\Vzryv.iz.proshlogo.2015.SATRip\Vzryv.iz.proshlogo.04.2015.SATRip.avi
   General
      Complete name : E:\Фильмы-1\Vzryv.iz.proshlogo.2015.SATRip\Vzryv.iz.proshlogo.04.2015.SATRip.avi
      Format : AVI
      Format/Info : Audio Video Interleave
      File size : 598 MiB
      Duration : 43mn 8s
      Overall bit rate : 1 938 Kbps
      Writing application : VirtualDubMod 1.5.10.3 | www.virtualdub-fr.org || (build 2550/release)
      Writing library : VirtualDubMod build 2550/release
   Video #0
      ID : 0
      Format : MPEG-4 Visual
      Format profile : Advanced Simple@L5
      Format settings, BVOP : 2
      Format settings, QPel : No
      Format settings, GMC : No warppoints
      Format settings, Matrix : Default (MPEG)
      Codec ID : XVID
      Codec ID/Hint : XviD
      Duration : 43mn 8s
      Bit rate : 1 800 Kbps
      Width : 720 pixels
      Height : 448 pixels
      Display aspect ratio : 1.607
      Frame rate : 25.000 fps
      Color space : YUV
      Chroma subsampling : 4:2:0
      Bit depth : 8 bits
      Scan type : Progressive
      Compression mode : Lossy
      Bits/(Pixel*Frame) : 0.223
      Stream size : 555 MiB (93%)
      Writing library : XviD 1.2.1 (UTC 2008-12-04)
   Audio #1
      ID : 1
      Format : MPEG Audio
      Format version : Version 1
      Format profile : Layer 3
      Mode : Joint stereo
      Codec ID : 55
      Codec ID/Hint : MP3
      Duration : 43mn 8s
      Bit rate mode : Constant
      Bit rate : 128 Kbps
      Channel(s) : 2 channels
      Sampling rate : 48.0 KHz
      Compression mode : Lossy
      Stream size : 39.5 MiB (7%)
      Alignment : Aligned on interleaves
      Interleave, duration : 40 ms (1.00 video frame)
      Interleave, preload duration : 504 ms
      Writing library : LAME3.99r
      Encoding settings : -m j -V 4 -q 2 -lowpass 17 -b 128
picpicpicpicpicpicpicpicpicpicpicpicpic
Для увеличения картинки щелкните мышкой по превью

Этот торрент недоступен для скачивания без регистрации, однако доступен по публичной magnet-ссылке (источники с публичных трекеров). Перед использованием ссылки прочтите, пожалуйста Пользовательское соглашение, а также как можно дольше оставайтесь на раздаче! Для того, чтобы скачать сам торрент-файл (который видит больше источников), а также для того, чтобы поблагодарить релизера, вам необходимо зарегистрироваться. Если регистрироваться лень - вы можете также попробовать скачать релиз по нашим партнерским ссылкам ниже.

[underverse.su].t52297.torrent
Трекер: Зарегистрирован   [ 07.03.2015 08:55 ]  

Статус: проверено (by nemos at 07.03.2015 08:55)
Поблагодарили: 3 человека
Тип торрента: публичный - доступные источники с открытых трекеров: 
Размер: 2,36 GB (занимает 0,54 DVDR, для записи нужно 1 болванка DVDR/RW)
 
 

Яндекс.Метрика powered by Sphinx


В Н И М А Н И Е
Сайт не распространяет и не хранит электронные версии произведений, а лишь бесплатно и без коммерческой выгоды (не требуя взамен платы,
SMS и т.д.) предоставляет доступ к создаваемому пользователями каталогу ссылок на торрент-файлы, которые содержат только списки хеш-сумм.
Убедительная просьба с жалобами обращаться напрямую к пользователю, разместившему торрент файл.

Вверх