Loading...
Error

Мир, созданный без изъяна / The World Made Straight (Дэвид Буррис) [2015 г., драма, BDRip-AVC] 2xAVO (PashaUp, Lord32x) + Original (Eng) + Sub (Rus, Eng)

Статистика раздачи
Размер:  2,31 GB   |    Зарегистрирован:  1 год 9 месяцев   |    Скачан:  8 раз

Полного источника не было: 1 год 2 месяца

Сидов:  0  |  0 KB/s  ]   Личеров:  0  |  0 KB/s  ]

* - сиды/пиры с внешних источников

   
 
Автор Сообщение

90ytr90 

06-Мар-2015 06:31

Мир, созданный без изъяна / The World Made Straight


Название: Мир, созданный без изъяна / Так устроена жизнь
Оригинальное название: The World Made Straight
Год выхода: 2015
Жанр: Драма
Режиссёр: Дэвид Буррис
В фильме снимались: Ноа Уайли, Джереми Ирвин, Минка Келли, Эделейд Клеменс, Стив Эрл, Хэйли Джоэл Осмент, Сандра Эллис Лэфферти, Маркус Хестер, Диана Ленска, Стивен Геведон, Тим Уэр, Колин Деннард, Робин Маллинз, Алекс Ван, Том Гилрой, Крис Мэзени, Фред Галле, Мэттью Пабо, Энн О’Ши, Кэти Уолтон Пулли, Фрэнсис Барнетт, Бонни Коул, Дэвид Лоу

Описание:
Семнадцатилетний Трэвис однажды летом забредает в лес, на частную территорию около его дома в Северной Каролине, и обнаруживает целую рощу марихуаны, после чего попадает в медвежий капкан. Проведя в ловушке несколько часов, он, наконец, освобожден местным фермером, хозяином делянки. Однако с этого момента он уже не может спокойно относиться к тем порокам, которыми пропитано это небольшое сельское сообщество в Аппалачах. Вскоре Тревис уезжает из родительского дома и поселяется у учителя Леонарда, который живет в трейлере на окраине города, балуется наркотиками и читает журналы об американской гражданской войне. Судьбы этих людей переплетаются, когда ужасное прошлое и болезненное настоящее городка приводит к ожесточенному сведению счетов, в котором с одной стороны оказывается замешан фермер с марихуаной, а с другой стороны эхом отдается кровавая резня времен гражданской войны, которая продолжает разделять местное сообщество.

Страна: США
Студия: Bifrost Pictures, Dreambridge Films, Myriad Pictures Inc.
Продолжительность: 01:59:21
Перевод: Любительский одноголосый [Павел Морозов aka PashaUp], любительский одноголосый [Игорь Фролов aka Lord32x]

Кодек: x264
Качество: BDRip-AVC
Видео: MPEG-4 AVC, 1750 Кбит/с, 1024x426, 23.976 кадр/с
Звук:
Аудио #1: Русский (AC3, 6 ch, 384 Кбит/с) / Любительский одноголосый [Павел Морозов aka PashaUp]
Аудио #2: Русский (AC3, 2 ch, 192 Кбит/с) / Любительский одноголосый [Игорь Фролов aka Lord32x]
Аудио #3: Английский (AC3, 6 ch, 448 Кбит/с)
Субтитры: Русские, английские


pic pic pic
Для увеличения картинки щелкните мышкой по превью
Рип - Викс
Перевод [Игорь Фролов aka Lord32x] в сети 6-канальный, но как выяснилось он дутый, перевод присутстствует во всех каналах кроме НЧФ http://prntscr.com/6d4n53
Оставил только передние левый и правый каналы и собрал 2-канальный перевод
Сохранены оригинальные чаптеры как на Blu-Ray
Общее
Уникальный идентификатор : 211088327177178097648004490081833185978 (0x9ECE220DBCBC1917A063B59BCE6DF2BA)
Полное имя : H:ФильмСделать русский переводГотовые сделаные релизыThe.World.Made.Straight.2015.x264.BDRip-AVC-MediaClub.mkv
Формат : Matroska
Версия формата : Version 2
Размер файла : 2,31 Гбайт
Продолжительность : 1 ч. 59 м.
Общий поток : 2773 Кбит/сек
Название фильма : The World Made Straight (2015) BDRip-AVC =MediaClub= [Викс]
Дата кодирования : UTC 2015-03-05 18:41:05
Программа кодирования : mkvmerge v5.8.0 ('No Sleep / Pillow') built on Sep 2 2012 15:37:04
Библиотека кодирования : libebml v1.2.3 + libmatroska v1.3.0

Видео
Идентификатор : 1
Формат : AVC
Формат/Информация : Advanced Video Codec
Профиль формата : High@L4.1
Параметр CABAC формата : Да
Параметр ReFrames формата : 10 кадров
Идентификатор кодека : V_MPEG4/ISO/AVC
Продолжительность : 1 ч. 59 м.
Битрейт : 1750 Кбит/сек
Ширина : 1024 пикселя
Высота : 426 пикселей
Соотношение сторон : 2,40:1
Режим частоты кадров : Постоянный
Частота кадров : 23,976 кадра/сек
Цветовое пространство : YUV
Субдискретизация насыщенности : 4:2:0
Битовая глубина : 8 бит
Тип развёртки : Прогрессивная
Бит/(Пиксели*Кадры) : 0.167
Размер потока : 1,41 Гбайт (61%)
Библиотека кодирования : x264 core 125 r2208 d9d2288
Настройки программы : cabac=1 / ref=10 / deblock=1:-3:-3 / analyse=0x3:0x133 / me=umh / subme=11 / psy=1 / psy_rd=1.00:0.25 / mixed_ref=1 / me_range=48 / chroma_me=1 / trellis=2 / 8x8dct=1 / cqm=0 / deadzone=21,11 / fast_pskip=0 / chroma_qp_offset=-4 / threads=12 / lookahead_threads=2 / sliced_threads=0 / nr=0 / decimate=1 / interlaced=0 / bluray_compat=0 / constrained_intra=0 / bframes=8 / b_pyramid=2 / b_adapt=2 / b_bias=0 / direct=3 / weightb=1 / open_gop=0 / weightp=2 / keyint=240 / keyint_min=24 / scenecut=40 / intra_refresh=0 / rc=2pass / mbtree=0 / bitrate=1750 / ratetol=1.0 / qcomp=0.60 / qpmin=0 / qpmax=69 / qpstep=4 / cplxblur=20.0 / qblur=0.5 / ip_ratio=1.40 / pb_ratio=1.30 / aq=1:1.00
Язык : English
Default : Да
Forced : Нет

Аудио #1
Идентификатор : 2
Формат : AC-3
Формат/Информация : Audio Coding 3
Расширение режима : CM (complete main)
Параметр Endianness формата : Big
Идентификатор кодека : A_AC3
Продолжительность : 1 ч. 59 м.
Вид битрейта : Постоянный
Битрейт : 384 Кбит/сек
Каналы : 6 каналов
Расположение каналов : Front: L C R, Side: L R, LFE
Частота : 48,0 КГц
Битовая глубина : 16 бит
Метод сжатия : С потерями
Размер потока : 328 Мбайт (14%)
Язык : Russian
Default : Да
Forced : Нет

Аудио #2
Идентификатор : 3
Формат : AC-3
Формат/Информация : Audio Coding 3
Расширение режима : CM (complete main)
Параметр Endianness формата : Big
Идентификатор кодека : A_AC3
Продолжительность : 1 ч. 59 м.
Вид битрейта : Постоянный
Битрейт : 192 Кбит/сек
Каналы : 2 канала
Расположение каналов : Front: L R
Частота : 48,0 КГц
Битовая глубина : 16 бит
Метод сжатия : С потерями
Размер потока : 164 Мбайт (7%)
Язык : Russian
Default : Нет
Forced : Нет

Аудио #3
Идентификатор : 4
Формат : AC-3
Формат/Информация : Audio Coding 3
Расширение режима : CM (complete main)
Параметр Endianness формата : Big
Идентификатор кодека : A_AC3
Продолжительность : 1 ч. 59 м.
Вид битрейта : Постоянный
Битрейт : 448 Кбит/сек
Каналы : 6 каналов
Расположение каналов : Front: L C R, Side: L R, LFE
Частота : 48,0 КГц
Битовая глубина : 16 бит
Метод сжатия : С потерями
Размер потока : 382 Мбайт (16%)
Язык : English
Default : Нет
Forced : Нет

Текст #1
Идентификатор : 5
Формат : UTF-8
Идентификатор кодека : S_TEXT/UTF8
Идентификатор кодека/Информация : UTF-8 Plain Text
Язык : Russian
Default : Нет
Forced : Нет

Текст #2
Идентификатор : 6
Формат : UTF-8
Идентификатор кодека : S_TEXT/UTF8
Идентификатор кодека/Информация : UTF-8 Plain Text
Язык : English
Default : Нет
Forced : Нет

Меню
00:00:00.000 : :Chapter 01
00:10:07.857 : :Chapter 02
00:23:29.658 : :Chapter 03
00:31:37.145 : :Chapter 04
00:42:33.759 : :Chapter 05
00:53:12.564 : :Chapter 06
01:02:31.789 : :Chapter 07
01:14:10.612 : :Chapter 08
01:27:30.912 : :Chapter 09
01:36:43.172 : :Chapter 10
01:47:32.696 : :Chapter 11
01:54:18.226 : :Chapter 12

Этот торрент недоступен для скачивания без регистрации, однако доступен по публичной magnet-ссылке (источники с публичных трекеров). Перед использованием ссылки прочтите, пожалуйста Пользовательское соглашение, а также как можно дольше оставайтесь на раздаче! Для того, чтобы скачать сам торрент-файл (который видит больше источников), а также для того, чтобы поблагодарить релизера, вам необходимо зарегистрироваться. Если регистрироваться лень - вы можете также попробовать скачать релиз по нашим партнерским ссылкам ниже.

[underverse.su].t52259.torrent
Трекер: Зарегистрирован   [ 06.03.2015 06:31 ]  

Статус: проверено (by 90ytr90 at 07.03.2015 10:56)
Поблагодарили: пока никто не поблагодарил...
Тип торрента: публичный - доступные источники с открытых трекеров: 
Размер: 2,31 GB (занимает 0,53 DVDR, для записи нужно 1 болванка DVDR/RW)
 
 
Похожие темы
Форум Тема Автор Торрент Отв. Посл. сооб.
Зарубежное кино [DVDRip, Low-Res HDRip, и т.д.] Мир, созданный без изъяна / The World Made Straight (Дэвид Буррис) [2015 г., драма, WEB-DLRip] VO [Павел Морозов aka PashaUp] Паукан
58 | 2

0 | 619

16

19.01.2015 16:01

Зарубежное кино [DVDRip, Low-Res HDRip, и т.д.] Мир, созданный без изъяна / Так устроена жизнь / The world made straight (Дэвид Буррис) [2015 г., драма, HDRip] MVO + Original makkol
9 | 0

0 | 574

16

27.07.2015 22:53

Зарубежное кино [HDDVDRip / BDRip / WEB-DL / HDTV 1080/720р] Мир, созданный без изъяна / The World Made Straight (Дэвид Буррис) [2015 г., драма, WEB-DL 720p] VO [PashaUp] + Original + Sub (Eng) Паукан
7 | 2

0 | 653

8

20.01.2015 17:28

Зарубежное кино [HDDVDRip / BDRip / WEB-DL / HDTV 1080/720р] Мир, созданный без изъяна / Так устроена жизнь / The world made straight (Дэвид Буррис) [2015 г., драма, BDRip 720p] MVO + Original + Subs (Eng) makkol
104 | 7

0 | 466

2

27.07.2015 23:14

Зарубежное кино [HDDVDRip / BDRip / WEB-DL / HDTV 1080/720р] Мир, созданный без изъяна / Так устроена жизнь / The world made straight (Дэвид Буррис) [2015 г., драма, BDRip 1080p] MVO + Original + Subs makkol
1 | 1

0 | 525

6

27.07.2015 23:29


Яндекс.Метрика powered by Sphinx


В Н И М А Н И Е
Сайт не распространяет и не хранит электронные версии произведений, а лишь бесплатно и без коммерческой выгоды (не требуя взамен платы,
SMS и т.д.) предоставляет доступ к создаваемому пользователями каталогу ссылок на торрент-файлы, которые содержат только списки хеш-сумм.
Убедительная просьба с жалобами обращаться напрямую к пользователю, разместившему торрент файл.

Вверх