Loading...
Error

Штирия / The Curse of Styria (Маурицио Черновецкий, Марк Девендорф) [2014 г., Ужасы, Триллер, Фэнтези, WEB-DLRip] DVO (RUS, Влад & Снежинка)

Статистика раздачи
Размер:  1,46 GB   |    Зарегистрирован:  1 год 9 месяцев   |    Скачан:  20 раз

Полного источника не было: 9 месяцев

Сидов:  0  |  0 KB/s  ]   Личеров:  0  |  0 KB/s  ]

* - сиды/пиры с внешних источников

   
 
Автор Сообщение

Ведьмочка Пол:Жен

05-Мар-2015 10:02

Штирия / The Curse of Styria
«Love requires sacrifice»


Страна: США , Венгрия
Год выпуска: 2014
Жанр: Ужасы, Триллер, Фэнтези
Продолжительность: 01:39:18
Режиссёр: Маурицио Черновецкий, Марк Девендорф
В ролях: Элинор Томлинсо, Стивен Ри, Эрика Марожан, Кэти Силверман, Жуль Уиллкокс, Юлия Петруха, Миклош Секей Б., Герда Пикали, Яцек Ленартович, Ласло Кадар
Сюжет фильма:
Действие фильма происходит в 1989 году. Лару исключают из школы, и её отец, доктор Хилл, вынужден взять дочь с собой в экспедицию в страны за железным занавесом. Они отправляются в разрушенный замок Карнштейн. Там они знакомятся с молодой девушкой Кармиллой. Лара привлечена Кармиллой, и вместе они бродят по развалинам замка и окрестным лесам. Тем временем таинственные силы просыпаются в замке и одолевают его обитателей. Местный генерал хочет уничтожить замок, место нечистой силы, и всех, кто там находится. Кармилла предлагает Ларе спасение, но для этого девушка должна пройти ужасное испытание.

Озвучивание:
  • Любительский, Двухголосный, Русский [Влад & Снежинка]

Качество видео: WEB-DLRip
Формат: AVI

Видео: XviD, 720x400 (16:9), 23.976, ~1907 Кбит/сек
Аудио: AC-3, 192 Кбит/сек, 2 Канала, 48.0 КГц



General
Complete name : \Shtirija.2014.L2.WEB-DLRip.avi.avi
Format : AVI
Format/Info : Audio Video Interleave
File size : 1.46 GiB
Duration : 1h 39mn
Overall bit rate : 2 106 Kbps
Writing application : VirtualDubMod 1.5.10.3 | www.virtualdub-fr.org || (build 2550/release)
Writing library : VirtualDubMod build 2550/release

Video
ID : 0
Format : MPEG-4 Visual
Format profile : Advanced Simple@L5
Format settings, BVOP : 1
Format settings, QPel : No
Format settings, GMC : No warppoints
Format settings, Matrix : Custom
Codec ID : XVID
Codec ID/Hint : XviD
Duration : 1h 39mn
Bit rate : 1 905 Kbps
Width : 720 pixels
Height : 400 pixels
Display aspect ratio : 16:9
Frame rate : 23.976 fps
Color space : YUV
Chroma subsampling : 4:2:0
Bit depth : 8 bits
Scan type : Progressive
Compression mode : Lossy
Bits/(Pixel*Frame) : 0.276
Stream size : 1.32 GiB (90%)
Writing library : XviD 73

Audio
ID : 1
Format : AC-3
Format/Info : Audio Coding 3
Mode extension : CM (complete main)
Format settings, Endianness : Big
Codec ID : 2000
Duration : 1h 39mn
Bit rate mode : Constant
Bit rate : 192 Kbps
Channel(s) : 2 channels
Channel positions : Front: L R
Sampling rate : 48.0 KHz
Bit depth : 16 bits
Compression mode : Lossy
Stream size : 136 MiB (9%)
Alignment : Split accross interleaves
Interleave, duration : 42 ms (1.00 video frame)
Interleave, preload duratio : 500 ms


picpicpicpicpic
Для увеличения картинки щелкните мышкой по превью



Этот торрент недоступен для скачивания без регистрации, однако доступен по публичной magnet-ссылке (источники с публичных трекеров). Перед использованием ссылки прочтите, пожалуйста Пользовательское соглашение, а также как можно дольше оставайтесь на раздаче! Для того, чтобы скачать сам торрент-файл (который видит больше источников), а также для того, чтобы поблагодарить релизера, вам необходимо зарегистрироваться. Если регистрироваться лень - вы можете также попробовать скачать релиз по нашим партнерским ссылкам ниже.

[underverse.su].t52219.torrent
Трекер: Зарегистрирован   [ 05.03.2015 10:02 ]  

Статус: проверено (by Ведьмочка at 05.03.2015 11:04)
Поблагодарили: 1 человек
Тип торрента: публичный - доступные источники с открытых трекеров: 
Размер: 1,46 GB (занимает 0,33 DVDR, для записи нужно 1 болванка DVDR/RW)
 
 
Похожие темы
Форум Тема Автор Торрент Отв. Посл. сооб.
Зарубежное кино [HDDVDRip / BDRip / WEB-DL / HDTV 1080/720р] Штирия / The Curse of Styria (Маурицио Черновецкий, Марк Девендорф) [2014 г., Ужасы, Триллер, Фэнтези, WEB-DL 720p] DVO (RUS, Влад & Снежинка) + Original (ENG) + Subs (ENG) Ведьмочка
16 | 1

0 | 455

4

05.03.2015 09:47


Яндекс.Метрика powered by Sphinx


В Н И М А Н И Е
Сайт не распространяет и не хранит электронные версии произведений, а лишь бесплатно и без коммерческой выгоды (не требуя взамен платы,
SMS и т.д.) предоставляет доступ к создаваемому пользователями каталогу ссылок на торрент-файлы, которые содержат только списки хеш-сумм.
Убедительная просьба с жалобами обращаться напрямую к пользователю, разместившему торрент файл.

Вверх