Loading...
Error

Дом ужасов / The Scarehouse (Гэвин Бут) [2014 г., Ужасы, Триллер, Боевик, WEB-DLRip] DVO (RUS, Влад & Снежинка)

Статистика раздачи
Размер:  1,37 GB   |    Зарегистрирован:  1 год 8 месяцев   |    Скачан:  13 раз

Полного источника не было: 5 месяцев 12 дней

Сидов:  0  |  0 KB/s  ]   Личеров:  0  |  0 KB/s  ]

* - сиды/пиры с внешних источников

   
 
Автор Сообщение

Ведьмочка Пол:Жен

05-Мар-2015 09:29

Дом ужасов / The Scarehouse
«Really mean girls go all the way»


Страна: Канада
Год выпуска: 2014
Жанр: Ужасы, Триллер, Боевик
Продолжительность: 01:24:06
Режиссёр: Гэвин Бут
В ролях: Сара Хансен, Кимберли-Сью Мюррэй, Кэтерин Баррелл, Тиган Винс, Эмили Алатало, Даниэль Баркер, Ивана Стоянович, Дженнифер Миллер, Брэд Эверетт
Сюжет фильма:
Двое друзей решили устроить вечеринку на Хэллоуин у себя дома и пригласили к себе шесть сестер. Однако они не ожидали, что ночью их играм и веселью придет конец, и ситуация совершенно выйдет из-под контроля…

Озвучивание:
  • Любительский, Многоголосный, Русский [Влад & Снежинка]

Качество видео: WEB-DLRip
Формат: AVI

Видео: XviD, 720x304 (2.35:1), 29.970 fps, ~2120 Кбит/сек
Аудио: AC-3, 192 Кбит/сек, 2 Канала, 48.0 КГц



General
Complete name : \The.Scarehouse.2014.L2.WEB-DLRip.1400MB.avi
Format : AVI
Format/Info : Audio Video Interleave
File size : 1.37 GiB
Duration : 1h 24mn
Overall bit rate : 2 324 Kbps
Writing application : VirtualDubMod 1.5.10.3 | www.virtualdub-fr.org || (build 2550/release)
Writing library : VirtualDubMod build 2550/release

Video
ID : 0
Format : MPEG-4 Visual
Format profile : Advanced Simple@L5
Format settings, BVOP : 1
Format settings, QPel : No
Format settings, GMC : No warppoints
Format settings, Matrix : Custom
Codec ID : XVID
Codec ID/Hint : XviD
Duration : 1h 24mn
Bit rate : 2 120 Kbps
Width : 720 pixels
Height : 304 pixels
Display aspect ratio : 2.35:1
Frame rate : 29.970 fps
Color space : YUV
Chroma subsampling : 4:2:0
Bit depth : 8 bits
Scan type : Progressive
Compression mode : Lossy
Bits/(Pixel*Frame) : 0.323
Stream size : 1.25 GiB (91%)
Writing library : XviD 73

Audio
ID : 1
Format : AC-3
Format/Info : Audio Coding 3
Mode extension : CM (complete main)
Format settings, Endianness : Big
Codec ID : 2000
Duration : 1h 24mn
Bit rate mode : Constant
Bit rate : 192 Kbps
Channel(s) : 2 channels
Channel positions : Front: L R
Sampling rate : 48.0 KHz
Bit depth : 16 bits
Compression mode : Lossy
Stream size : 115 MiB (8%)
Alignment : Split accross interleaves
Interleave, duration : 33 ms (1.00 video frame)
Interleave, preload duratio : 500 ms


picpicpicpicpic
Для увеличения картинки щелкните мышкой по превью



Этот торрент недоступен для скачивания без регистрации, однако доступен по публичной magnet-ссылке (источники с публичных трекеров). Перед использованием ссылки прочтите, пожалуйста Пользовательское соглашение, а также как можно дольше оставайтесь на раздаче! Для того, чтобы скачать сам торрент-файл (который видит больше источников), а также для того, чтобы поблагодарить релизера, вам необходимо зарегистрироваться. Если регистрироваться лень - вы можете также попробовать скачать релиз по нашим партнерским ссылкам ниже.

[underverse.su].t52217.torrent
Трекер: Зарегистрирован   [ 05.03.2015 09:29 ]  

Статус: # сомнительно (by Ведьмочка at 05.03.2015 09:30)
Поблагодарили: 1 человек
Тип торрента: публичный - доступные источники с открытых трекеров: 
Размер: 1,37 GB (занимает 0,31 DVDR, для записи нужно 1 болванка DVDR/RW)
 
 
Похожие темы
Форум Тема Автор Торрент Отв. Посл. сооб.
Зарубежное кино [HDDVDRip / BDRip / WEB-DL / HDTV 1080/720р] Дом ужасов / The Scarehouse (Гэвин Бут) [2014 г., Ужасы, Триллер, Боевик, WEB-DL 720p] DVO (RUS, Влад & Снежинка) Ведьмочка
28 | 0

0 | 437

6

05.03.2015 09:24


Яндекс.Метрика powered by Sphinx


В Н И М А Н И Е
Сайт не распространяет и не хранит электронные версии произведений, а лишь бесплатно и без коммерческой выгоды (не требуя взамен платы,
SMS и т.д.) предоставляет доступ к создаваемому пользователями каталогу ссылок на торрент-файлы, которые содержат только списки хеш-сумм.
Убедительная просьба с жалобами обращаться напрямую к пользователю, разместившему торрент файл.

Вверх