Loading...
Error

Джулия / Julia (Мэттью А. Браун) [2014 г., Ужасы, Триллер, HDRip] DVO (RUS, Влад & Снежинка)

Статистика раздачи
Размер:  1,21 GB   |    Зарегистрирован:  1 год 9 месяцев   |    Скачан:  14 раз

Полного источника не было: 1 месяц 1 день

Сидов:  0  |  0 KB/s  ]   Личеров:  0  |  0 KB/s  ]

* - сиды/пиры с внешних источников

   
 
Автор Сообщение

Ведьмочка Пол:Жен

05-Мар-2015 08:45

Джулия / Julia


Страна: США
Год выпуска: 2014
Жанр: Ужасы, Триллер
Продолжительность: 01:35:12
Режиссёр: Мэттью А. Браун
В ролях: Эшли С. Уильямс, Тахина Тоцци-МакМанус, Джек Ноузуорти, Джоэль де ла Фуэнте, Кэри Вудворт, Даррен Липари, Райан Купер, Бриджет Меган Кларк
Сюжет фильма:
Джулия - тихая и скромная девушка, работающая медсестрой в клинике пластической хирургии. Однажды она знакомится с богатым парнем, который приглашает ее на свидание к себе домой. Ожидавшая романтического вечера, вскоре, Джулия оказывается жестоко изнасилованной своим парнем и его дружками и, как мусор, выкинутой на берег реки. Но, вопреки всему, девушка выживает. Опустошенная, сломленная и униженная, она встречает прекрасную незнакомку Сейди, которая приводит ее к тому, кто исцелит Джулию и заставит по-иному увидеть себя и этот мир.

Озвучивание:
  • Любительский, Двухголосный, Русский [Влад & Снежинка]

Качество видео: HDRip
Формат: AVI

Видео: XviD, 720x304 (2.35:1), 23.976 fps, ~1615 Кбит/сек
Аудио: AC-3, 192 Кбит/сек, 2 Канала, 48.0 КГц



General
Complete name : \Джулия.avi
Format : AVI
Format/Info : Audio Video Interleave
File size : 1.21 GiB
Duration : 1h 35mn
Overall bit rate : 1 816 Kbps
Movie name : RARBG.COM - Julia.2014.720p.BRRip.XviD.AC3-RARBG
Writing application : VirtualDubModRus 1.5.10.2 (build 2542/release)
Writing library : VirtualDubMod build 2542/release
Comment : RARBG.COM - Julia.2014.720p.BRRip.XviD.AC3-RARBG

Video
ID : 0
Format : MPEG-4 Visual
Format profile : Advanced Simple@L5
Format settings, BVOP : 2
Format settings, QPel : No
Format settings, GMC : No warppoints
Format settings, Matrix : Default (H.263)
Muxing mode : Packed bitstream
Codec ID : XVID
Codec ID/Hint : XviD
Duration : 1h 35mn
Bit rate : 1 615 Kbps
Width : 720 pixels
Height : 304 pixels
Display aspect ratio : 2.35:1
Frame rate : 23.976 fps
Color space : YUV
Chroma subsampling : 4:2:0
Bit depth : 8 bits
Scan type : Progressive
Compression mode : Lossy
Bits/(Pixel*Frame) : 0.308
Stream size : 1.07 GiB (89%)
Writing library : XviD 64

Audio
ID : 1
Format : AC-3
Format/Info : Audio Coding 3
Mode extension : CM (complete main)
Format settings, Endianness : Big
Codec ID : 2000
Duration : 1h 35mn
Bit rate mode : Constant
Bit rate : 192 Kbps
Channel(s) : 2 channels
Channel positions : Front: L R
Sampling rate : 48.0 KHz
Bit depth : 16 bits
Compression mode : Lossy
Stream size : 131 MiB (11%)
Alignment : Split accross interleaves
Interleave, duration : 42 ms (1.00 video frame)
Interleave, preload duratio : 500 ms


picpicpicpicpic
Для увеличения картинки щелкните мышкой по превью



Этот торрент недоступен для скачивания без регистрации, однако доступен по публичной magnet-ссылке (источники с публичных трекеров). Перед использованием ссылки прочтите, пожалуйста Пользовательское соглашение, а также как можно дольше оставайтесь на раздаче! Для того, чтобы скачать сам торрент-файл (который видит больше источников), а также для того, чтобы поблагодарить релизера, вам необходимо зарегистрироваться. Если регистрироваться лень - вы можете также попробовать скачать релиз по нашим партнерским ссылкам ниже.

[underverse.su].t52215.torrent
Трекер: Зарегистрирован   [ 05.03.2015 08:45 ]  

Статус: проверено (by Ведьмочка at 05.03.2015 08:45)
Поблагодарили: пока никто не поблагодарил...
Тип торрента: публичный - доступные источники с открытых трекеров: 
Размер: 1,21 GB (занимает 0,28 DVDR, для записи нужно 1 болванка DVDR/RW)
 
 
Похожие темы
Форум Тема Автор Торрент Отв. Посл. сооб.
Классика зарубежного кино Джулия / Julia (Der Liebesschuler) (Зиги Ротемунд) [1974 г., драма, эротика, DVDRip] MVO makkol
3 | 2

0 | 735

15

26.06.2015 23:27

Зарубежное кино [HDDVDRip / BDRip / WEB-DL / HDTV 1080/720р] Джулия / Julia (Мэттью А. Браун) [2014 г., Ужасы, Триллер, BDRip 720p] DVO (RUS, Влад & Снежинка) + Original (ENG) Ведьмочка
1 | 0

0 | 674

10

06.03.2015 11:44


Яндекс.Метрика powered by Sphinx


В Н И М А Н И Е
Сайт не распространяет и не хранит электронные версии произведений, а лишь бесплатно и без коммерческой выгоды (не требуя взамен платы,
SMS и т.д.) предоставляет доступ к создаваемому пользователями каталогу ссылок на торрент-файлы, которые содержат только списки хеш-сумм.
Убедительная просьба с жалобами обращаться напрямую к пользователю, разместившему торрент файл.

Вверх