Loading...
Error

Женский дом / GirlHouse (Тревор Мэтьюз) [2014 г., Ужасы, Триллер, WEB-DLRip] MVO (RUS, Sunny-Films) + Original (ENG)

Статистика раздачи
Размер:  1,46 GB   |    Зарегистрирован:  1 год 9 месяцев   |    Скачан:  17 раз

Полного источника не было: 2 месяца 18 дней

Сидов:  0  |  0 KB/s  ]   Личеров:  0  |  0 KB/s  ]

* - сиды/пиры с внешних источников

   
 
Автор Сообщение

Ведьмочка Пол:Жен

05-Мар-2015 08:19

Женский дом / GirlHouse


Страна: Канада
Год выпуска: 2014
Жанр: Ужасы, Триллер
Продолжительность: 01:41:04
Режиссёр: Тревор Мэтьюз
В ролях: Эли Кобрин, Адам ДиМарко, Слэйн, Элисон Бэт, Элисия Ротару, Элис Хантер, Чести Бальестерос, Николь Фокс, Зулейка Силвер, Уэсли МакИннес
Сюжет фильма:
Молодая студентка, отчаянно нуждающаяся в деньгах на обучение, начинает работу в доме, откуда ведутся трансляции для взрослых. Но стоит обиженному фанату узнать его местоположение, как ей приходится бороться за свою жизнь.

Озвучивание:
  • Любительский, Многоголосный, Русский [Sunny-Films]
  • Оригинал, Английский

Качество видео: WEB-DLRip
Формат: AVI

Видео: AVC, 720x304 (2.35:1), 23.976 fps, ~1666 Кбит/сек
Аудио #1: AC-3, 192 Кбит/сек, 2 Канала, 48.0 КГц
Аудио #2: AC-3, 192 Кбит/сек, 2 Канала, 48.0 КГц



General
Complete name : \Girl.House.2014.L2.WEB-DLRip.avi
Format : AVI
Format/Info : Audio Video Interleave
File size : 1.46 GiB
Duration : 1h 41mn
Overall bit rate : 2 065 Kbps
Writing application : VirtualDubMod 1.5.10.3 | www.virtualdub-fr.org || (build 2550/release)
Writing library : VirtualDubMod build 2550/release

Video
ID : 0
Format : MPEG-4 Visual
Format profile : Advanced Simple@L5
Format settings, BVOP : 1
Format settings, QPel : No
Format settings, GMC : No warppoints
Format settings, Matrix : Custom
Codec ID : XVID
Codec ID/Hint : XviD
Duration : 1h 41mn
Bit rate : 1 666 Kbps
Width : 720 pixels
Height : 304 pixels
Display aspect ratio : 2.35:1
Frame rate : 23.976 fps
Color space : YUV
Chroma subsampling : 4:2:0
Bit depth : 8 bits
Scan type : Progressive
Compression mode : Lossy
Bits/(Pixel*Frame) : 0.318
Stream size : 1.18 GiB (81%)
Writing library : XviD 73

Audio #1
ID : 1
Format : AC-3
Format/Info : Audio Coding 3
Mode extension : CM (complete main)
Format settings, Endianness : Big
Codec ID : 2000
Duration : 1h 41mn
Bit rate mode : Constant
Bit rate : 192 Kbps
Channel(s) : 2 channels
Channel positions : Front: L R
Sampling rate : 48.0 KHz
Bit depth : 16 bits
Compression mode : Lossy
Delay relative to video : 3ms
Stream size : 139 MiB (9%)
Alignment : Split accross interleaves
Interleave, duration : 42 ms (1.00 video frame)
Interleave, preload duratio : 500 ms

Audio #2
ID : 2
Format : AC-3
Format/Info : Audio Coding 3
Mode extension : CM (complete main)
Format settings, Endianness : Big
Codec ID : 2000
Duration : 1h 41mn
Bit rate mode : Constant
Bit rate : 192 Kbps
Channel(s) : 2 channels
Channel positions : Front: L R
Sampling rate : 48.0 KHz
Bit depth : 16 bits
Compression mode : Lossy
Stream size : 139 MiB (9%)
Alignment : Split accross interleaves
Interleave, duration : 42 ms (1.00 video frame)
Interleave, preload duratio : 500 ms


picpicpicpicpic
Для увеличения картинки щелкните мышкой по превью



Этот торрент недоступен для скачивания без регистрации, однако доступен по публичной magnet-ссылке (источники с публичных трекеров). Перед использованием ссылки прочтите, пожалуйста Пользовательское соглашение, а также как можно дольше оставайтесь на раздаче! Для того, чтобы скачать сам торрент-файл (который видит больше источников), а также для того, чтобы поблагодарить релизера, вам необходимо зарегистрироваться. Если регистрироваться лень - вы можете также попробовать скачать релиз по нашим партнерским ссылкам ниже.

[underverse.su].t52214.torrent
Трекер: Зарегистрирован   [ 05.03.2015 08:19 ]  

Статус: проверено (by Ведьмочка at 05.03.2015 08:36)
Поблагодарили: 1 человек
Тип торрента: публичный - доступные источники с открытых трекеров: 
Размер: 1,46 GB (занимает 1/3 DVDR, для записи нужно 1 болванка DVDR/RW)
 
 
Похожие темы
Форум Тема Автор Торрент Отв. Посл. сооб.
Зарубежное кино [DVDRip, Low-Res HDRip, и т.д.] Женский дом / GirlHouse (Тревор Мэтьюз / Trevor Matthews) [2014 г., ужасы, триллер, HDRip] MVO (Sunny-Films) 90ytr90
1 | 0

1 | 658

11

06.03.2015 15:52

Зарубежное кино [DVDRip, Low-Res HDRip, и т.д.] Женский дом / GirlHouse (Тревор Мэтьюз) [2014 г., ужасы, триллер, WEB-DLRip] MVO [Sunny-Films] + Original Паукан
6 | 0

0 | 704

18

27.05.2015 12:58

xUSSR сериалы Женский доктор [01-40 из 40] (Александр Пархоменко, Антон Гойда) [2012 г., мелодрама, IPTVRip] H. Ledger
1 | 0

0 | 519

4

10.07.2012 02:09

Зарубежное кино [HDDVDRip / BDRip / WEB-DL / HDTV 1080/720р] Женский дом / GirlHouse (Тревор Мэтьюз) [2014 г., Ужасы, Триллер, WEB-DL 720p] MVO (RUS, Sunny-Films) + Original (ENG) + Subs (ENG) Ведьмочка
45 | 2

0 | 537

9

05.03.2015 08:15


Яндекс.Метрика powered by Sphinx


В Н И М А Н И Е
Сайт не распространяет и не хранит электронные версии произведений, а лишь бесплатно и без коммерческой выгоды (не требуя взамен платы,
SMS и т.д.) предоставляет доступ к создаваемому пользователями каталогу ссылок на торрент-файлы, которые содержат только списки хеш-сумм.
Убедительная просьба с жалобами обращаться напрямую к пользователю, разместившему торрент файл.

Вверх