Loading...
Error

Правила охоты. Штурм / Серии: 1-4 из 4 (Грачья Кешишян) [2015 г., Боевик, SatRip]

Статистика раздачи
Размер:  2,26 GB   |    Зарегистрирован:  1 год 9 месяцев   |    Скачан:  52 раза

Полного источника не было: 20 часов

Сидов:  0  |  0 KB/s  ]   Личеров:  0  |  0 KB/s  ]

* - сиды/пиры с внешних источников

   
 
Автор Сообщение

nemos Пол:Муж

28-Фев-2015 22:18

Правила охоты. Штурм


Год выпуска: 2015
премьера (РФ) 28 февраля 2015
Жанр: Боевик
Страна: Россия
Режиссер: Грачья Кешишян
В ролях: Юрий Кормушин, Дмитрий Клепацкий, Татьяна Лянник, Хорен Левонян, Сергей Апрельский, Арам Караханян, Вреж Акопян, Дэвид Кацарава, Светлана Губина
Сюжет фильма:
Агент внедрения Влад Артемьев получает информацию о готовящейся встрече ветеранов спецслужб, среди которых должен присутствовать человек, имеющий отношение к гибели его родителей. О секретной встрече становится известно и влиятельному боевику Халебу Массабу, который охотится за тем, кто организовал операцию по уничтожению его старшего брата-террориста. Оказавшись на месте, Влад понимает, что остался единственным среди гостей, кто не попал в заложники к группе боевиков под предводительством Халеба. Он решает в одиночку дать бой двум десяткам вооруженных до зубов головорезов...

Качество видео: SatRip

Продолжительность: 00:39:13 серия
Формат: AVI
Видео: XviD, 720х400, 1 789 kbps
Аудио: русский, MP3 2.0, 128 kbps

Код:

E:\Фильмы-1\Pravila.ohoty.Shturm.SATRip\Pravila.ohoty.Shturm.04.SATRip.avi
   General
      Complete name : E:\Фильмы-1\Pravila.ohoty.Shturm.SATRip\Pravila.ohoty.Shturm.04.SATRip.avi
      Format : AVI
      Format/Info : Audio Video Interleave
      File size : 540 MiB
      Duration : 39mn 13s
      Overall bit rate : 1 926 Kbps
      Writing application : VirtualDubMod 1.5.10.3 | www.virtualdub-fr.org || (build 2550/release)
      Writing library : VirtualDub build 32507/release
   Video #0
      ID : 0
      Format : MPEG-4 Visual
      Format profile : Advanced Simple@L5
      Format settings, BVOP : 2
      Format settings, QPel : No
      Format settings, GMC : No warppoints
      Format settings, Matrix : Default (MPEG)
      Codec ID : XVID
      Codec ID/Hint : XviD
      Duration : 39mn 13s
      Bit rate : 1 789 Kbps
      Width : 720 pixels
      Height : 400 pixels
      Display aspect ratio : 16:9
      Frame rate : 25.000 fps
      Color space : YUV
      Chroma subsampling : 4:2:0
      Bit depth : 8 bits
      Scan type : Progressive
      Compression mode : Lossy
      Bits/(Pixel*Frame) : 0.248
      Stream size : 502 MiB (93%)
      Writing library : XviD 1.2.1 (UTC 2008-12-04)
   Audio #1
      ID : 1
      Format : MPEG Audio
      Format version : Version 1
      Format profile : Layer 3
      Mode : Joint stereo
      Mode extension : MS Stereo
      Codec ID : 55
      Codec ID/Hint : MP3
      Duration : 39mn 13s
      Bit rate mode : Constant
      Bit rate : 128 Kbps
      Channel(s) : 2 channels
      Sampling rate : 48.0 KHz
      Compression mode : Lossy
      Stream size : 35.9 MiB (7%)
      Alignment : Aligned on interleaves
      Interleave, duration : 40 ms (1.00 video frame)
      Interleave, preload duration : 504 ms
      Writing library : LAME3.99r
      Encoding settings : -m j -V 4 -q 2 -lowpass 17 -b 128
picpicpicpicpicpicpic
Для увеличения картинки щелкните мышкой по превью

Этот торрент недоступен для скачивания без регистрации, однако доступен по публичной magnet-ссылке (источники с публичных трекеров). Перед использованием ссылки прочтите, пожалуйста Пользовательское соглашение, а также как можно дольше оставайтесь на раздаче! Для того, чтобы скачать сам торрент-файл (который видит больше источников), а также для того, чтобы поблагодарить релизера, вам необходимо зарегистрироваться. Если регистрироваться лень - вы можете также попробовать скачать релиз по нашим партнерским ссылкам ниже.

[underverse.su].t51932.torrent
Трекер: Зарегистрирован   [ 28.02.2015 22:18 ]  

Статус: проверено (by nemos at 28.02.2015 22:18)
Поблагодарили: 2 человека
Тип торрента: публичный - доступные источники с открытых трекеров: 
Размер: 2,26 GB (занимает 0,52 DVDR, для записи нужно 1 болванка DVDR/RW)
 
 
Похожие темы
Форум Тема Автор Торрент Отв. Посл. сооб.
xUSSR сериалы Правила охоты. Отступник (1-4 серии из 4) (Давид Зограбян) [2014 г., боевик, SatRip] nemos
7 | 0

0 | 1154

21

29.12.2014 09:03


Яндекс.Метрика powered by Sphinx


В Н И М А Н И Е
Сайт не распространяет и не хранит электронные версии произведений, а лишь бесплатно и без коммерческой выгоды (не требуя взамен платы,
SMS и т.д.) предоставляет доступ к создаваемому пользователями каталогу ссылок на торрент-файлы, которые содержат только списки хеш-сумм.
Убедительная просьба с жалобами обращаться напрямую к пользователю, разместившему торрент файл.

Вверх