Loading...
Error

Наставник / Серии:1-4 из 4 (Григорий Жихаревич) [2015 г., детектив, криминальный, SatRip]

Статистика раздачи
Размер:  2,46 GB   |    Зарегистрирован:  1 год 9 месяцев   |    Скачан:  24 раза

Полного источника не было: 1 час 52 минуты

Сидов:  0  |  0 KB/s  ]   Личеров:  0  |  0 KB/s  ]

* - сиды/пиры с внешних источников

   
 
Автор Сообщение

nemos Пол:Муж

28-Фев-2015 09:22

Наставник


Год выпуска: 2015
Жанр: детектив, криминальный
Страна: Россия
Режиссер: Григорий Жихаревич
В ролях: Евгений Дятлов, Анатолий Друзенко, Михаил Трухин, Дмитрий Лысенков, Константин Шелестун, Сергей Уманов, Михаил Карпенко, Валентин Кузнецов, Алексей Федькин, Светлана Шаврова, Ирина Обрезкова, Александр Вонтов, Сергей Мурзин, Татьяна Ткач, Андрей Вергелис, Оксана Скакун, Любовь Мочалина, Евгений Ганелин, Александр Иванов, Леонид Алимов, Владимир Маслаков
Сюжет фильма:
Майор полиции Кравцов, несмотря на участие в различных коррупционных схемах, остается одним из лучших сотрудников управления. Именно поэтому к нему прикрепляют стажера Сергея Горшенина, который сразу же проявляет себя как толковый и честный парень, готовый подставить плечо своему наставнику в трудный момент. Тем временем у Кравцова нарастают проблемы, связанные с его незаконной деятельностью. Младший брат владельца подпольного казино Малинина, которое «крышует» полицейский, все чаще впутывается в сомнительные авантюры. В результате тяжело ранен оперативник, но Кравцов вынужден скрывать информацию о преступниках. Однако стажер Горшенин сам выходит на их след, после чего становится свидетелем еще более тяжкого преступления. Личности убийц Сергею известны, но их задержание может привести на скамью подсудимых и самого Кравцова, и его начальника. Жизнь Горшенина, не собирающегося поступаться принципами, теперь в руках его наставника, чьи подельники ставят вопрос предельно жестко: либо стажер вольется в ряды «оборотней в погонах», либо его придется убить…


Качество видео: SatRip

Продолжительность: 00:45:046 серия
Формат: AVI
Видео: XviD, 720x448, 1 800 kbps
Аудио: русский, MP3 2.0, 128 kbps

Код:

E:\Фильмы-1\Nastavnik.2015.SATRip\Nastavnik.04.2015.SATRip.avi
   General
      Complete name : E:\Фильмы-1\Nastavnik.2015.SATRip\Nastavnik.04.2015.SATRip.avi
      Format : AVI
      Format/Info : Audio Video Interleave
      File size : 634 MiB
      Duration : 45mn 46s
      Overall bit rate : 1 938 Kbps
      Writing application : VirtualDubMod 1.5.10.3 | www.virtualdub-fr.org || (build 2550/release)
      Writing library : VirtualDubMod build 2550/release
   Video #0
      ID : 0
      Format : MPEG-4 Visual
      Format profile : Advanced Simple@L5
      Format settings, BVOP : 2
      Format settings, QPel : No
      Format settings, GMC : No warppoints
      Format settings, Matrix : Default (MPEG)
      Codec ID : XVID
      Codec ID/Hint : XviD
      Duration : 45mn 46s
      Bit rate : 1 800 Kbps
      Width : 720 pixels
      Height : 448 pixels
      Display aspect ratio : 1.607
      Frame rate : 25.000 fps
      Color space : YUV
      Chroma subsampling : 4:2:0
      Bit depth : 8 bits
      Scan type : Progressive
      Compression mode : Lossy
      Bits/(Pixel*Frame) : 0.223
      Stream size : 589 MiB (93%)
      Writing library : XviD 1.2.1 (UTC 2008-12-04)
   Audio #1
      ID : 1
      Format : MPEG Audio
      Format version : Version 1
      Format profile : Layer 3
      Mode : Joint stereo
      Codec ID : 55
      Codec ID/Hint : MP3
      Duration : 45mn 46s
      Bit rate mode : Constant
      Bit rate : 128 Kbps
      Channel(s) : 2 channels
      Sampling rate : 48.0 KHz
      Compression mode : Lossy
      Stream size : 41.9 MiB (7%)
      Alignment : Aligned on interleaves
      Interleave, duration : 40 ms (1.00 video frame)
      Interleave, preload duration : 504 ms
      Writing library : LAME3.99r
      Encoding settings : -m j -V 4 -q 2 -lowpass 17 -b 128
picpicpicpicpicpicpic
Для увеличения картинки щелкните мышкой по превью

Этот торрент недоступен для скачивания без регистрации, однако доступен по публичной magnet-ссылке (источники с публичных трекеров). Перед использованием ссылки прочтите, пожалуйста Пользовательское соглашение, а также как можно дольше оставайтесь на раздаче! Для того, чтобы скачать сам торрент-файл (который видит больше источников), а также для того, чтобы поблагодарить релизера, вам необходимо зарегистрироваться. Если регистрироваться лень - вы можете также попробовать скачать релиз по нашим партнерским ссылкам ниже.

[underverse.su].t51829.torrent
Трекер: Зарегистрирован   [ 28.02.2015 09:22 ]  

Статус: проверено (by nemos at 28.02.2015 09:23)
Поблагодарили: 1 человек
Тип торрента: публичный - доступные источники с открытых трекеров: 
Размер: 2,46 GB (занимает 0,56 DVDR, для записи нужно 1 болванка DVDR/RW)
 
 

Яндекс.Метрика powered by Sphinx


В Н И М А Н И Е
Сайт не распространяет и не хранит электронные версии произведений, а лишь бесплатно и без коммерческой выгоды (не требуя взамен платы,
SMS и т.д.) предоставляет доступ к создаваемому пользователями каталогу ссылок на торрент-файлы, которые содержат только списки хеш-сумм.
Убедительная просьба с жалобами обращаться напрямую к пользователю, разместившему торрент файл.

Вверх