Loading...
Error

Кодекс вора / The Code / Thick as thieves (Мими Ледер / Mimi Leder) [2009 г., боевик, триллер, криминал, BDRip] DVO + Original + Sub (Rus,Eng) HQ Underverse

Статистика раздачи
Размер:  2,17 GB   |    Зарегистрирован:  1 год 9 месяцев   |    Скачан:  18 раз
Сидов:  2  |  19 KB/s  ]   Личеров:  0  |  0 KB/s  ]

* - сиды/пиры с внешних источников

   
 
Автор Сообщение

HQ Underverse 

25-Фев-2015 11:57

Кодекс вора / The Code / Thick as thieves


Год выпуска: 2009
Жанр: боевик, триллер, криминал
Страна: США , Германия
Режиссер: Мими Ледер / Mimi Leder
В ролях: Морган Фриман, Антонио Бандерас, Рада Митчелл, Роберт Форстер, Раде Шербеджия, Марчел Юреш, Том Харди, Иван Петрушинов, Джеррит Вурен, Джошуа Рубин
Сюжет фильма:
Кит Рипли, опытный вор из Нью-Йорка, приглашает из Майами молодого, но уже проявившего себя «коллегу», Габриэля Мартина. Рипли нужен напарник для кражи двух старинных и очень ценных яиц Фаберже. Они вместе с другими драгоценностями российской династии Романовых хранятся в хорошо защищенном сейфе. Каждое яйцо на черном рынке стоит двадцать миллионов долларов.

Украв раритет, Рипли планирует вернуть долг криминальному боссу Ники. Сумеет ли вор расплатиться по счетам, если в планы «преступной парочки» хочет вмешаться лейтенант полиции Вебер?

  • Мировая премьера: 9 января 2009

/
Качество видео: BDRip

Продолжительность: 01:43:28
Формат: avi
Видео: XviD, 720x304, 2093 kbps
Аудио #1: русский, двухголосый закадровый [профессиональный], AC3 5.1, 448 kbps
Аудио #2: английский, оригинал, AC3 5.1, 448 kbps
Субтитры #1: внешние, SRT, русский
Субтитры #2: внешние, SRT, английский

Семпл: http://multi-up.com/1035064

Релиз группы:

Код:

General
Complete name                    : D:\Video\Movies\Releases\Code.2009.BDRip.XviD.AC3.Rus.DVO.Eng.O.HQ.Underverse.avi
Format                           : AVI
Format/Info                      : Audio Video Interleave
Format profile                   : OpenDML
File size                        : 2.17 GiB
Duration                         : 1h 43mn
Overall bit rate                 : 3 008 Kbps
Writing application              : VirtualDubMod 1.5.10.3 | www.virtualdub-fr.org || (build 2550/release)
Writing library                  : VirtualDubMod build 2550/release

Video
ID                               : 0
Format                           : MPEG-4 Visual
Format profile                   : Streaming Video@L1
Format settings, BVOP            : Yes
Format settings, QPel            : No
Format settings, GMC             : No warppoints
Format settings, Matrix          : Custom
Codec ID                         : XVID
Codec ID/Hint                    : XviD
Duration                         : 1h 43mn
Bit rate                         : 2 094 Kbps
Width                            : 720 pixels
Height                           : 304 pixels
Display aspect ratio             : 2.35
Frame rate                       : 23.976 fps
Resolution                       : 24 bits
Colorimetry                      : 4:2:0
Scan type                        : Progressive
Bits/(Pixel*Frame)               : 0.399
Stream size                      : 1.51 GiB (70%)
Writing library                  : XviD 66

Audio #1
ID                               : 1
Format                           : AC-3
Format/Info                      : Audio Coding 3
Codec ID                         : 2000
Duration                         : 1h 43mn
Bit rate mode                    : Constant
Bit rate                         : 448 Kbps
Channel(s)                       : 6 channels
Channel positions                : Front: L C R, Surround: L R, LFE
Sampling rate                    : 48.0 KHz
Stream size                      : 332 MiB (15%)
Alignment                        : Split accross interleaves
Interleave, duration             : 42 ms (1.00 video frame)
Interleave, preload duration     : 500 ms
Title                            : Russian DVO

Audio #2
ID                               : 2
Format                           : AC-3
Format/Info                      : Audio Coding 3
Codec ID                         : 2000
Duration                         : 1h 43mn
Bit rate mode                    : Constant
Bit rate                         : 448 Kbps
Channel(s)                       : 6 channels
Channel positions                : Front: L C R, Surround: L R, LFE
Sampling rate                    : 48.0 KHz
Stream size                      : 332 MiB (15%)
Alignment                        : Split accross interleaves
Interleave, duration             : 42 ms (1.00 video frame)
Interleave, preload duration     : 500 ms
Title                            : English
picpicpicpic
Для увеличения картинки щелкните мышкой по превью

Этот торрент недоступен для скачивания без регистрации, однако доступен по публичной magnet-ссылке (источники с публичных трекеров). Перед использованием ссылки прочтите, пожалуйста Пользовательское соглашение, а также как можно дольше оставайтесь на раздаче! Для того, чтобы скачать сам торрент-файл (который видит больше источников), а также для того, чтобы поблагодарить релизера, вам необходимо зарегистрироваться. Если регистрироваться лень - вы можете также попробовать скачать релиз по нашим партнерским ссылкам ниже.

[underverse.su].t51542.torrent
Трекер: Зарегистрирован   [ 25.02.2015 11:57 ]  

Статус: проверено (by Паукан at 27.02.2015 16:38)
Поблагодарили: 1 человек
Тип торрента: публичный - доступные источники с открытых трекеров: 
Размер: 2,17 GB (занимает 1/2 DVDR, для записи нужно 1 болванка DVDR/RW)
 
 
Похожие темы
Форум Тема Автор Торрент Отв. Посл. сооб.
Зарубежное кино [DVDRip, Low-Res HDRip, и т.д.] Кодекс вора / Код / Thick as thieves / The Code (Мими Ледер) [2008 г., криминальный, BDRip] GUree
0 | 0

2 | 1077

5

08.11.2009 22:04

Зарубежное кино [DVDRip, Low-Res HDRip, и т.д.] Кодекс вора / The Code (Мими Ледер / Mimi Leder / Mimi Leder) [2008 г., боевик, триллер, криминал, HDRip] MVO 90ytr90
8 | 0

0 | 250

4

12.11.2016 16:11

Зарубежное кино [DVDRip, Low-Res HDRip, и т.д.] Кодекс вора / The Code (Мими Ледер / Mimi Leder / Mimi Leder) [2008 г., боевик, триллер, криминал, HDRip] Dub (Рен ТВ) 90ytr90
11 | 0

0 | 233

5

12.11.2016 16:05

Зарубежное кино [HDDVDRip / BDRip / WEB-DL / HDTV 1080/720р] Кодекс вора / The Code (Мими Ледер / Mimi Leder / Mimi Leder) [2008 г., боевик, триллер, криминал, BDRip 720p] Dub (Рен ТВ) + DVO + MVO (ВГТРК) + MVO (Ukr ICTV) + Original (Eng) + Sub (Rus, Eng) 90ytr90
7 | 0

0 | 231

2

12.11.2016 16:18


Яндекс.Метрика powered by Sphinx


В Н И М А Н И Е
Сайт не распространяет и не хранит электронные версии произведений, а лишь бесплатно и без коммерческой выгоды (не требуя взамен платы,
SMS и т.д.) предоставляет доступ к создаваемому пользователями каталогу ссылок на торрент-файлы, которые содержат только списки хеш-сумм.
Убедительная просьба с жалобами обращаться напрямую к пользователю, разместившему торрент файл.

Вверх