Loading...
Error

Ветеран (1-4 серии из 4) (Денис Скворцов) [2015 г., Боевик, SatRip]

Статистика раздачи
Размер:  2,37 GB   |    Зарегистрирован:  2 года 2 месяца   |    Скачан:  40 раз

Полного источника не было: 3 месяца 17 дней

Сидов:  0  |  0 KB/s  ]   Личеров:  0  |  0 KB/s  ]

* - сиды/пиры с внешних источников

   
 
Автор Сообщение

nemos Пол:Муж

20-Фев-2015 20:49





Год выпуска: 20 февраля 2015
Жанр: Боевик
Страна: Россия
Режиссер: Денис Скворцов
В ролях: Андрей Чубченко, Виталий Пичик, Григорий Зельцер, Борис Бедросов, Варвара Бородина, Волли Хаммер, Алексей Шевченков, Александр Самохин, Михаил Ложкин
Качество видео: SatRip

Продолжительность: 00:42:45 серия
Формат: AVI
Видео: XviD, 720x448, 1 800 kbps
Аудио: русский, MP3 2.0, 128 kbps
Служба безопасности одного из городских банков планирует устранить конкурента. Для этого им нужен человек, на которого можно будет «повесить» убийство. Идеальной кандидатурой на роль подставного киллера заговорщики считают Павла Новикова – ветерана одной из локальных войн. Несколько лет назад ему удалось бежать из плена. Новиков выжил лишь чудом, ведь в госпитале его отправили в морг, приняв за мертвеца. Теперь каждую ночь Павлу снятся сны о войне и о плене. Он состоит на учете у психиатра и ежедневно принимает таблетки. Но в один день вся жизнь Новикова меняется. Во-первых, ему назначают нового лечащего врача – недавнюю выпускницу медицинского института Елену Свиблову. Во-вторых, Павел замечает за собой слежку и обнаруживает в квартире следы посторонних. Новикову кажется, что он сходит с ума, о чем он рассказывает своему врачу. Сначала Лена не верит своему пациенту, так как действительно считает его душевнобольным. Но в какой-то момент девушка понимает: Новиков прав, и кто-то на самом деле за ним следит…За оказавшимся в центре заговора Павлом и его врачом начинается настоящая охота… Майор полиции Борис Воровский проводит свое расследование и убеждается, что Павла пытаются подставить. Смогут ли Павел и Елена разрушить коварные планы людей, замысливших кровавое преступление, и удастся ли майору Воровскому выйти на след настоящих убийц?

Код:

E:\Фильмы-1\Veteran.SATRip\Veteran.04.SATRip.avi
   General
      Complete name : E:\Фильмы-1\Veteran.SATRip\Veteran.04.SATRip.avi
      Format : AVI
      Format/Info : Audio Video Interleave
      File size : 593 MiB
      Duration : 42mn 45s
      Overall bit rate : 1 938 Kbps
      Writing application : VirtualDubMod 1.5.10.3 | www.virtualdub-fr.org || (build 2550/release)
      Writing library : VirtualDubMod build 2550/release
   Video #0
      ID : 0
      Format : MPEG-4 Visual
      Format profile : Advanced Simple@L5
      Format settings, BVOP : 2
      Format settings, QPel : No
      Format settings, GMC : No warppoints
      Format settings, Matrix : Default (H.263)
      Codec ID : XVID
      Codec ID/Hint : XviD
      Duration : 42mn 45s
      Bit rate : 1 800 Kbps
      Width : 720 pixels
      Height : 448 pixels
      Display aspect ratio : 1.607
      Frame rate : 25.000 fps
      Color space : YUV
      Chroma subsampling : 4:2:0
      Bit depth : 8 bits
      Scan type : Progressive
      Compression mode : Lossy
      Bits/(Pixel*Frame) : 0.223
      Stream size : 550 MiB (93%)
      Writing library : XviD 1.2.1 (UTC 2008-12-04)
   Audio #1
      ID : 1
      Format : MPEG Audio
      Format version : Version 1
      Format profile : Layer 3
      Mode : Joint stereo
      Codec ID : 55
      Codec ID/Hint : MP3
      Duration : 42mn 45s
      Bit rate mode : Constant
      Bit rate : 128 Kbps
      Channel(s) : 2 channels
      Sampling rate : 48.0 KHz
      Compression mode : Lossy
      Stream size : 39.1 MiB (7%)
      Alignment : Aligned on interleaves
      Interleave, duration : 40 ms (1.00 video frame)
      Interleave, preload duration : 504 ms
      Writing library : LAME3.99r
      Encoding settings : -m j -V 4 -q 9 -lowpass 17 -b 128
picpicpicpicpicpicpic
Для увеличения картинки щелкните мышкой по превью

Этот торрент недоступен для скачивания без регистрации, однако доступен по публичной magnet-ссылке (источники с публичных трекеров). Перед использованием ссылки прочтите, пожалуйста Пользовательское соглашение, а также как можно дольше оставайтесь на раздаче! Для того, чтобы скачать сам торрент-файл (который видит больше источников), а также для того, чтобы поблагодарить релизера, вам необходимо зарегистрироваться. Если регистрироваться лень - вы можете также попробовать скачать релиз по нашим партнерским ссылкам ниже.

[underverse.su].t50935.torrent
Трекер: Зарегистрирован   [ 20.02.2015 20:49 ]  

Статус: проверено (by nemos at 20.02.2015 20:50)
Поблагодарили: 4 человека
Тип торрента: публичный - доступные источники с открытых трекеров: 
Размер: 2,37 GB (занимает 0,54 DVDR, для записи нужно 1 болванка DVDR/RW)
 
 

Яндекс.Метрика powered by Sphinx


В Н И М А Н И Е
Сайт не распространяет и не хранит электронные версии произведений, а лишь бесплатно и без коммерческой выгоды (не требуя взамен платы,
SMS и т.д.) предоставляет доступ к создаваемому пользователями каталогу ссылок на торрент-файлы, которые содержат только списки хеш-сумм.
Убедительная просьба с жалобами обращаться напрямую к пользователю, разместившему торрент файл.

Вверх