Loading...
Error

Патруль времени / Predestination (Майкл Спириг, Питер Спириг) [2014 г., фантастика, триллер, BDRip] Dub + Original + Sub (Rus,Eng) HQ Underverse

Статистика раздачи
Размер:  1,45 GB   |    Зарегистрирован:  1 год 9 месяцев   |    Скачан:  49 раз
Сидов:  1  |  0 KB/s  ]   Личеров:  0  |  0 KB/s  ]

* - сиды/пиры с внешних источников

   
 
Автор Сообщение

HQ Underverse 

20-Фев-2015 11:19

Патруль времени / Predestination


Год выпуска: 2014
Жанр: фантастика, триллер
Страна: США
Режиссер: Майкл Спириг, Питер Спириг
В ролях: Сара Снук, Итан Хоук, Ноа Тейлор, Элиз Джэнсен, Фрея Стэффорд, Кристофер Кирби, Кейт Вульф, Алексис Фернандес, Люсинда Армстронг Холл, Алисия Павлис
Сюжет фильма:
Специальный агент постоянно находится между прошлым и будущим, чтобы обеспечить себе карьеру законника длиною в вечность. В своем последнем задании ему предстоит завербовать в прошлом самого себя и, наконец, задержать преступника, который вновь и вновь ускользает от него в другое время, находясь всегда на шаг впереди него.

  • Мировая премьера: 13 января 2014
  • Российская премьера: 4 декабря 2014, «Top Film Distribution»

/
Качество видео: BDRip

Продолжительность: 01:37:48
Формат: avi
Видео: XviD, 720x304, 1665 kbps
Аудио #1: русский, дублированный [лицензия], AC3 5.1, 448 kbps
Аудио #2: английский, оригинал, AC3 5.1, 448 kbps (отдельным файлом: здесь)
Субтитры #1: внешние, SRT, русский
Субтитры #2: внешние, SRT, английский

Код:

General
Complete name                    : Y:\Патруль времени\Predestination.2014.BDRip.XviD.AC3.Rus.D.HQ.Underverse.avi
Format                           : AVI
Format/Info                      : Audio Video Interleave
File size                        : 1.45 GiB
Duration                         : 1h 37mn
Overall bit rate                 : 2 123 Kbps
Writing application              : VirtualDubMod 1.5.10.3 | www.virtualdub-fr.org || (build 2550/release)
Writing library                  : VirtualDubMod build 2550/release

Video
ID                               : 0
Format                           : MPEG-4 Visual
Format profile                   : Streaming Video@L1
Format settings, BVOP            : Yes
Format settings, QPel            : No
Format settings, GMC             : No warppoints
Format settings, Matrix          : Custom
Codec ID                         : XVID
Codec ID/Hint                    : XviD
Duration                         : 1h 37mn
Bit rate                         : 1 666 Kbps
Width                            : 720 pixels
Height                           : 304 pixels
Display aspect ratio             : 2.35
Frame rate                       : 23.976 fps
Resolution                       : 24 bits
Colorimetry                      : 4:2:0
Scan type                        : Progressive
Bits/(Pixel*Frame)               : 0.317
Stream size                      : 1.14 GiB (78%)
Writing library                  : XviD 66

Audio
ID                               : 1
Format                           : AC-3
Format/Info                      : Audio Coding 3
Codec ID                         : 2000
Duration                         : 1h 37mn
Bit rate mode                    : Constant
Bit rate                         : 448 Kbps
Channel(s)                       : 6 channels
Channel positions                : Front: L C R, Surround: L R, LFE
Sampling rate                    : 48.0 KHz
Stream size                      : 313 MiB (21%)
Alignment                        : Split accross interleaves
Interleave, duration             : 42 ms (1.00 video frame)
Interleave, preload duration     : 500 ms

General
Complete name                    : Y:\Патруль времени\Predestination.2014.BDRip.XviD.AC3.Rus.D.HQ.Underverse.ENG.ac3
Format                           : AC-3
Format/Info                      : Audio Coding 3
File size                        : 312 MiB
Duration                         : 1h 37mn
Overall bit rate                 : 448 Kbps

Audio
Format                           : AC-3
Format/Info                      : Audio Coding 3
Duration                         : 1h 37mn
Bit rate mode                    : Constant
Bit rate                         : 448 Kbps
Channel(s)                       : 6 channels
Channel positions                : Front: L C R, Surround: L R, LFE
Sampling rate                    : 48.0 KHz
Stream size                      : 312 MiB (100%)

Релиз группы:

picpicpic
Для увеличения картинки щелкните мышкой по превью

Этот торрент недоступен для скачивания без регистрации, однако доступен по публичной magnet-ссылке (источники с публичных трекеров). Перед использованием ссылки прочтите, пожалуйста Пользовательское соглашение, а также как можно дольше оставайтесь на раздаче! Для того, чтобы скачать сам торрент-файл (который видит больше источников), а также для того, чтобы поблагодарить релизера, вам необходимо зарегистрироваться. Если регистрироваться лень - вы можете также попробовать скачать релиз по нашим партнерским ссылкам ниже.

[underverse.su].t50858.torrent
Трекер: Зарегистрирован   [ 20.02.2015 11:19 ]  

Статус: проверено (by HQ Underverse at 20.02.2015 11:21)
Поблагодарили: 2 человека
Тип торрента: публичный - доступные источники с открытых трекеров: 
Размер: 1,45 GB (занимает 1/3 DVDR, для записи нужно 1 болванка DVDR/RW)
 
 
Похожие темы
Форум Тема Автор Торрент Отв. Посл. сооб.
Зарубежное кино [DVDRip, Low-Res HDRip, и т.д.] Патруль времени / Predestination (Майкл Спириг / Michael Spierig, Питер Спириг / Peter Spierig) [2014 г., фантастика, триллер, HDRip] AVO (Есарев) [с цензурой] 90ytr90
1 | 0

0 | 1154

68

25.11.2014 08:31

# Зарубежное кино [DVDRip, Low-Res HDRip, и т.д.] Патруль времени / Predestination (Майкл Спириг / Michael Spierig, Питер Спириг / Peter Spierig) [2014 г., фантастика, триллер, HDRip] AVO (Есарев) [без цензуры] 90ytr90
0 | 0

0 | 1268

60

26.11.2014 10:44

Зарубежное кино [DVDRip, Low-Res HDRip, и т.д.] Патруль времени / Predestination (Майкл Спириг / Michael Spierig, Питер Спириг / Peter Spierig) [2014 г., фантастика, триллер, HDRip] DVO (Сладкая парочка) 90ytr90
1 | 0

0 | 1038

25

02.12.2014 15:17

Зарубежное кино [DVDRip, Low-Res HDRip, и т.д.] Патруль времени / Predestination (Майкл Спириг / Michael Spierig, Питер Спириг / Peter Spierig) [2014 г., фантастика, триллер, HDRip] MVO (BaibaKo) 90ytr90
1 | 0

0 | 1495

80

03.12.2014 15:59

Зарубежное кино [DVDRip, Low-Res HDRip, и т.д.] Патруль времени / Predestination (Майкл Спириг / Michael Spierig, Питер Спириг / Peter Spierig) [2014 г., фантастика, триллер, HDRip-AVC] MVO (Baibako) + Sub (Eng) 90ytr90
6 | 0

2 | 1318

87

18.01.2015 15:21

T Зарубежное кино [DVDRip, Low-Res HDRip, и т.д.] Патруль времени / Predestination (Майкл Спириг, Питер Спириг) [2014 г., фантастика, триллер, HDRip] Dub [Чистый звук] + Original Паукан
5 | 0

0 | 1494

121

26.12.2014 09:55

Зарубежное кино [DVDRip, Low-Res HDRip, и т.д.] Патруль времени / Predestination (Майкл Спириг / Michael Spierig, Питер Спириг / Peter Spierig) [2014 г., фантастика, триллер, BDRip] MVO (Baibako) + AVO (Есарев) + Original (Eng) + Sub (Eng) 90ytr90
1 | 0

1 | 675

28

18.03.2015 12:30

Зарубежное кино [DVDRip, Low-Res HDRip, и т.д.] Патруль времени / Predestination (Майкл Спириг / Michael Spierig, Питер Спириг / Peter Spierig) [2014 г., фантастика, триллер, BDRip] Dub 90ytr90
1 | 0

0 | 687

21

13.02.2015 16:56

Зарубежное кино [DVDRip, Low-Res HDRip, и т.д.] Патруль времени / Predestination (Майкл Спириг / Michael Spierig, Питер Спириг / Peter Spierig) [2014 г., фантастика, триллер, BDRip-AVC] Dub + Original (Eng) + Sub (Rus, Eng) 90ytr90
14 | 0

0 | 635

18

13.02.2015 19:55

Зарубежное кино [DVDRip, Low-Res HDRip, и т.д.] Патруль времени / Predestination (Майкл Спириг / Michael Spierig, Питер Спириг / Peter Spierig) [2014 г., фантастика, триллер, BDRip-AVC] Dub + Sub (Rus, Eng) 90ytr90
7 | 0

0 | 603

13

13.02.2015 20:05


Яндекс.Метрика powered by Sphinx


В Н И М А Н И Е
Сайт не распространяет и не хранит электронные версии произведений, а лишь бесплатно и без коммерческой выгоды (не требуя взамен платы,
SMS и т.д.) предоставляет доступ к создаваемому пользователями каталогу ссылок на торрент-файлы, которые содержат только списки хеш-сумм.
Убедительная просьба с жалобами обращаться напрямую к пользователю, разместившему торрент файл.

Вверх