Loading...
Error

По следу зверя (4 серии из 4) (Олег Курамшин) [2014 г., драма, криминал, SatRip]

Статистика раздачи
Размер:  2,37 GB   |    Зарегистрирован:  1 год 9 месяцев   |    Скачан:  25 раз

Полного источника не было: 3 месяца 26 дней

Сидов:  0  |  0 KB/s  ]   Личеров:  0  |  0 KB/s  ]

* - сиды/пиры с внешних источников

   
 
Автор Сообщение

nemos Пол:Муж

13-Фев-2015 20:10

По следу Зверя


Год выпуска: 2014
Жанр: драма, криминал
Страна: Россия
Режиссер: Олег Курамшин
В ролях: Эдуард Флёров, Илья Древнов, Евгения Туркова (Дина), Мария Чувилина (Даша), Юлия Тельпухова (Тамара), Михаил Салин (оперативник), Алексей Шаранин (санитар), Ирина Шиленко (менеджер в банке), Артём Кочетов (оперативник), Игорь Стаценко (Смирнов), Евграф Прохоров (хирург), Александр Яковлев (охранник банка)

Сюжет фильма:
Однажды судьба переплела жизни двух совершенно разных людей: преступника-рецидивиста Григория Архарова по кличке Зверь и следователя Антона Карелина. Карелин вместе с оперативниками ловил банду автоугонщиков, а поймал более «крупную рыбку». Известного преступника-рецидивиста Архарова безуспешно разыскивали за серию дерзких грабежей и убийств силовики сразу нескольких стран СНГ. С его умом, хваткой, невероятной интуицией и звериным чутьем, он мог попасться только случайно, что и произошло... Но Архарову удалось сбежать из обезьянника, а вот его подельник - Щуплый - во время побега был ранен и остался в РОВД. Зверь пообещал вытащить его. Тем временем Архаров похитил сына Карелина, требуя обмена на своего закадычного дружка. Рискуя служебным положением, Карелин вытащил Щуплого из больницы. Однако сын Карелина погиб во время преследования... Жена Карелина - Тома - не смогла простить мужу гибель сына и планомерно превратила его жизнь в ад. Карелин клянется ей, что найдет и убьет Зверя. Ради этого он идет на всё.... Так, желая найти отморозка, Карелин захватил любимую женщину Архарова, и косвенно явился причиной ее смерти... Антон Карелин потерял смысл жизни, но у него осталась цель... Теперь он не боится никого и ничего, и упорно идет по следу Зверя... Архаров же все ближе подбирается к Карелину, и все плотнее сжимает кольцо вокруг него...


Качество видео: SatRip

Продолжительность: 00:43:00 (Серия)
Формат: AVI
Видео: DivX, 720x448, 1500 kbps
Аудио: русский, MP3 2.0, 128 kbps

Код:

E:\Фильмы-1\Po.sledu.Zverja.01.SATRip.avi
   General
      Complete name : E:\Фильмы-1\Po.sledu.Zverja.01.SATRip.avi
      Format : AVI
      Format/Info : Audio Video Interleave
      File size : 505 MiB
      Duration : 43mn 0s
      Overall bit rate : 1 642 Kbps
   Video #0
      ID : 0
      Format : MPEG-4 Visual
      Format settings, BVOP : 1
      Format settings, QPel : No
      Format settings, GMC : No warppoints
      Format settings, Matrix : Default (H.263)
      Codec ID : DX50
      Codec ID/Hint : DivX 5
      Duration : 43mn 0s
      Bit rate : 1 500 Kbps
      Width : 720 pixels
      Height : 448 pixels
      Display aspect ratio : 1.607
      Frame rate : 25.000 fps
      Color space : YUV
      Chroma subsampling : 4:2:0
      Bit depth : 8 bits
      Scan type : Progressive
      Compression mode : Lossy
      Bits/(Pixel*Frame) : 0.186
      Stream size : 461 MiB (91%)
      Writing library : DivX 6.8.5 (UTC 2009-08-20)
   Audio #1
      ID : 1
      Format : MPEG Audio
      Format version : Version 1
      Format profile : Layer 3
      Mode : Joint stereo
      Mode extension : MS Stereo
      Codec ID : 55
      Codec ID/Hint : MP3
      Duration : 42mn 59s
      Bit rate mode : Constant
      Bit rate : 128 Kbps
      Channel(s) : 2 channels
      Sampling rate : 48.0 KHz
      Compression mode : Lossy
      Stream size : 39.4 MiB (8%)
      Alignment : Aligned on interleaves
      Interleave, duration : 24 ms (0.60 video frame)
picpicpicpicpicpicpic
Для увеличения картинки щелкните мышкой по превью

Этот торрент недоступен для скачивания без регистрации, однако доступен по публичной magnet-ссылке (источники с публичных трекеров). Перед использованием ссылки прочтите, пожалуйста Пользовательское соглашение, а также как можно дольше оставайтесь на раздаче! Для того, чтобы скачать сам торрент-файл (который видит больше источников), а также для того, чтобы поблагодарить релизера, вам необходимо зарегистрироваться. Если регистрироваться лень - вы можете также попробовать скачать релиз по нашим партнерским ссылкам ниже.

[underverse.su].t50402.torrent
Трекер: Зарегистрирован   [ 14.02.2015 21:49 ]  

Статус: проверено (by nemos at 14.02.2015 21:49)
Поблагодарили: 2 человека
Тип торрента: публичный - доступные источники с открытых трекеров: 
Размер: 2,37 GB (занимает 0,54 DVDR, для записи нужно 1 болванка DVDR/RW)
 
 

Яндекс.Метрика powered by Sphinx


В Н И М А Н И Е
Сайт не распространяет и не хранит электронные версии произведений, а лишь бесплатно и без коммерческой выгоды (не требуя взамен платы,
SMS и т.д.) предоставляет доступ к создаваемому пользователями каталогу ссылок на торрент-файлы, которые содержат только списки хеш-сумм.
Убедительная просьба с жалобами обращаться напрямую к пользователю, разместившему торрент файл.

Вверх