Loading...
Error

Семейка монстров / The Boxtrolls (Грэхэм Эннэйбл, Энтони Стакки) [2014 г., мультфильм, фэнтези, комедия, приключения, семейный, BDRip] Dub (Rus,Ukr) + Original + Sub (Rus,Ukr,Eng) HQ Underverse

Статистика раздачи
Размер:  2,17 GB   |    Зарегистрирован:  1 год 9 месяцев   |    Скачан:  6 раз

Полного источника не было: 10 часов

Сидов:  0  |  0 KB/s  ]   Личеров:  0  |  0 KB/s  ]

* - сиды/пиры с внешних источников

   
 
Автор Сообщение

HQ Underverse 

12-Фев-2015 17:57

Семейка монстров / The Boxtrolls


Год выпуска: 2014
Жанр: мультфильм, фэнтези, комедия, приключения, семейный
Страна: США
Режиссер: Грэхэм Эннэйбл, Энтони Стакки
Роли озвучивали: Бен Кингсли, Джаред Харрис, Ник Фрост, Ричард Айоади, Трэйси Морган, Ди Брэдли Бейкер, Стивен Блум, Ника Футтерман, Пэт Фрэли, Фред Татаскьор ...
Сюжет фильма:
Ему не повезло родиться в роскошном замке. Вместе с семейкой забавных монстров юноша поселился прямо под мостовой. Изысканные костюмы ему заменила обычная коробка. Зато каждую ночь он мог разгуливать по темным улицам в поисках новых приключений. Но однажды он встретил очаровательную девчушку из высшего общества — и мир вокруг изменился навсегда.
|
Качество видео: BDRip

Продолжительность: 01:36:09
Формат: avi
Видео: XviD, 720x400, 2320 kbps
Аудио #1: русский, дублированный [лицензия], AC3 5.1, 448 kbps
Аудио #2: английский, оригинал, AC3 5.1, 448 kbps
Аудио #3: украинский, дублированный [лицензия], AC3 5.1, 448 kbps (отдельным файлом: здесь)
Субтитры #1: внешние, SRT, украинский
Субтитры #2: внешние, SRT, русский
Субтитры #3: внешние, SRT, английский

Код:

General
Complete name                    : Y:\Семейка монстров\The.Boxtrolls.2014.BDRip.XviD.AC3.Rus.D.Eng.O.HQ.Underverse.avi
Format                           : AVI
Format/Info                      : Audio Video Interleave
Format profile                   : OpenDML
File size                        : 2.17 GiB
Duration                         : 1h 36mn
Overall bit rate                 : 3 235 Kbps
Writing application              : VirtualDubMod 1.5.10.3 | www.virtualdub-fr.org || (build 2550/release)
Writing library                  : VirtualDubMod build 2550/release

Video
ID                               : 0
Format                           : MPEG-4 Visual
Format profile                   : Streaming Video@L1
Format settings, BVOP            : Yes
Format settings, QPel            : No
Format settings, GMC             : No warppoints
Format settings, Matrix          : Custom
Codec ID                         : XVID
Codec ID/Hint                    : XviD
Duration                         : 1h 36mn
Bit rate                         : 2 321 Kbps
Width                            : 720 pixels
Height                           : 400 pixels
Display aspect ratio             : 16/9
Frame rate                       : 23.976 fps
Resolution                       : 24 bits
Colorimetry                      : 4:2:0
Scan type                        : Progressive
Bits/(Pixel*Frame)               : 0.336
Stream size                      : 1.56 GiB (72%)
Writing library                  : XviD 66

Audio #1
ID                               : 1
Format                           : AC-3
Format/Info                      : Audio Coding 3
Codec ID                         : 2000
Duration                         : 1h 36mn
Bit rate mode                    : Constant
Bit rate                         : 448 Kbps
Channel(s)                       : 6 channels
Channel positions                : Front: L C R, Surround: L R, LFE
Sampling rate                    : 48.0 KHz
Stream size                      : 308 MiB (14%)
Alignment                        : Split accross interleaves
Interleave, duration             : 42 ms (1.00 video frame)
Interleave, preload duration     : 500 ms

Audio #2
ID                               : 2
Format                           : AC-3
Format/Info                      : Audio Coding 3
Codec ID                         : 2000
Duration                         : 1h 36mn
Bit rate mode                    : Constant
Bit rate                         : 448 Kbps
Channel(s)                       : 6 channels
Channel positions                : Front: L C R, Surround: L R, LFE
Sampling rate                    : 48.0 KHz
Stream size                      : 308 MiB (14%)
Alignment                        : Split accross interleaves
Interleave, duration             : 42 ms (1.00 video frame)
Interleave, preload duration     : 500 ms

General
Complete name                    : Y:\Семейка монстров\The.Boxtrolls.2014.BDRip.XviD.AC3.Rus.D.Eng.O.HQ.Underverse.UKR.ac3
Format                           : AC-3
Format/Info                      : Audio Coding 3
File size                        : 308 MiB
Duration                         : 1h 36mn
Overall bit rate                 : 448 Kbps

Audio
Format                           : AC-3
Format/Info                      : Audio Coding 3
Duration                         : 1h 36mn
Bit rate mode                    : Constant
Bit rate                         : 448 Kbps
Channel(s)                       : 6 channels
Channel positions                : Front: L C R, Surround: L R, LFE
Sampling rate                    : 48.0 KHz
Stream size                      : 308 MiB (100%)

Релиз группы:

picpicpic
Для увеличения картинки щелкните мышкой по превью

Этот торрент недоступен для скачивания без регистрации, однако доступен по публичной magnet-ссылке (источники с публичных трекеров). Перед использованием ссылки прочтите, пожалуйста Пользовательское соглашение, а также как можно дольше оставайтесь на раздаче! Для того, чтобы скачать сам торрент-файл (который видит больше источников), а также для того, чтобы поблагодарить релизера, вам необходимо зарегистрироваться. Если регистрироваться лень - вы можете также попробовать скачать релиз по нашим партнерским ссылкам ниже.

[underverse.su].t50151.torrent
Трекер: Зарегистрирован   [ 12.02.2015 17:57 ]  

Статус: проверено (by HQ Underverse at 12.02.2015 17:59)
Поблагодарили: пока никто не поблагодарил...
Тип торрента: публичный - доступные источники с открытых трекеров: 
Размер: 2,17 GB (занимает 1/2 DVDR, для записи нужно 1 болванка DVDR/RW)
 
 
Похожие темы
Форум Тема Автор Торрент Отв. Посл. сооб.
Зарубежные мультфильмы Семейка монстров / The Boxtrolls (Грэхэм Эннэйбл / Graham Annable, Энтони Стакки / Anthony Stacchi) [2014 г., мультфильм, фэнтези, комедия, приключения, семейный, BDRip] Dub 90ytr90
14 | 0

0 | 369

19

04.02.2015 16:58

Зарубежные мультфильмы Семейка монстров / The Boxtrolls (Грэхэм Эннэйбл / Graham Annable, Энтони Стакки / Anthony Stacchi) [2014 г., мультфильм, фэнтези, комедия, приключения, семейный, BDRip-AVC] Dub + Original (Eng) +... 90ytr90
2 | 0

0 | 457

23

05.02.2015 17:10

Зарубежные мультфильмы Семейка монстров / The Boxtrolls (Грэхэм Эннэйбл / Graham Annable, Энтони Стакки / Anthony Stacchi) [2014 г., мультфильм, фэнтези, комедия, приключения, семейный, HDRip] Dub 90ytr90
4 | 0

0 | 641

10

28.02.2015 18:16

Мультфильмы [HDDVDRip / BDRip / WEB-DL / HDTV 1080/720р] Семейка монстров / The Boxtrolls (Грэхэм Эннэйбл / Graham Annable, Энтони Стакки / Anthony Stacchi) [2014 г., мультфильм, фэнтези, комедия, приключения, семейный, BDRip 720p] Dub + Ukr + Original... 90ytr90
0 | 0

0 | 449

9

04.02.2015 17:12

Мультфильмы [HDDVDRip / BDRip / WEB-DL / HDTV 1080/720р] Семейка монстров / The Boxtrolls (Грэхэм Эннэйбл / Graham Annable, Энтони Стакки / Anthony Stacchi) [2014 г., мультфильм, фэнтези, комедия, приключения, семейный, BDRip 1080p] Dub + Ukr + Original... 90ytr90
2 | 0

0 | 553

2

04.02.2015 17:21


Яндекс.Метрика powered by Sphinx


В Н И М А Н И Е
Сайт не распространяет и не хранит электронные версии произведений, а лишь бесплатно и без коммерческой выгоды (не требуя взамен платы,
SMS и т.д.) предоставляет доступ к создаваемому пользователями каталогу ссылок на торрент-файлы, которые содержат только списки хеш-сумм.
Убедительная просьба с жалобами обращаться напрямую к пользователю, разместившему торрент файл.

Вверх