Loading...
Error

Византия / Byzantium (Нил Джордан / Neil Jordan) [2012 г., ужасы, фэнтези, триллер, драма, BDRip] Dub HQ Underverse

Статистика раздачи
Размер:  2,17 GB   |    Зарегистрирован:  1 год 9 месяцев   |    Скачан:  10 раз
Сидов:  2  |  0 KB/s  ]   Личеров:  0  |  0 KB/s  ]

* - сиды/пиры с внешних источников

   
 
Автор Сообщение

HQ Underverse 

12-Фев-2015 13:19

Византия / Byzantium


Год выпуска: 2012
Жанр: ужасы, фэнтези, триллер, драма
Страна: Великобритания , США , Италия
Режиссер: Нил Джордан / Neil Jordan
В ролях: Сирша Ронан, Джемма Артертон, Сэм Райли, Калеб Лэндри Джонс, Дэниэл Мейс, Джонни Ли Миллер, Туре Линдхардт, Ури Гавриел, Мария Дойл Кеннеди, Кэролайн Джонс
Сюжет фильма:
История партнёрства вампиров — матери и дочери, которые выдают себя за сестёр.

  • Мировая премьера: 9 сентября 2012
  • Российская премьера: 1 августа 2013

/
Качество видео: BDRip [GER Transfer]

Продолжительность: 01:58:06
Формат: avi
Видео: XviD, 720x304, 2172 kbps
Аудио #1: русский, дублированный, AC3 5.1, 448 kbps
Аудио #2: английский, оригинал, AC3 5.1, 448 kbps (отдельным файлом)
Субтитры #1: внешние, SRT, русский
Субтитры #2: внешние, SRT, английский

Семпл: http://multi-up.com/1032599

Релиз группы:

Код:

General
Complete name                    : D:\Video\Movies\Releases\Byzantium.2012.BDRip.XviD.AC3.Rus.D.HQ.Underverse.avi
Format                           : AVI
Format/Info                      : Audio Video Interleave
Format profile                   : OpenDML
File size                        : 2.17 GiB
Duration                         : 1h 58mn
Overall bit rate                 : 2 633 Kbps
Writing application              : VirtualDubMod 1.5.10.3 | www.virtualdub-fr.org || (build 2550/release)
Writing library                  : VirtualDubMod build 2550/release

Video
ID                               : 0
Format                           : MPEG-4 Visual
Format profile                   : Streaming Video@L1
Format settings, BVOP            : Yes
Format settings, QPel            : No
Format settings, GMC             : No warppoints
Format settings, Matrix          : Custom
Codec ID                         : XVID
Codec ID/Hint                    : XviD
Duration                         : 1h 58mn
Bit rate                         : 2 173 Kbps
Width                            : 720 pixels
Height                           : 304 pixels
Display aspect ratio             : 2.35
Frame rate                       : 24.000 fps
Resolution                       : 24 bits
Colorimetry                      : 4:2:0
Scan type                        : Progressive
Bits/(Pixel*Frame)               : 0.414
Stream size                      : 1.79 GiB (83%)
Writing library                  : XviD 66

Audio
ID                               : 1
Format                           : AC-3
Format/Info                      : Audio Coding 3
Codec ID                         : 2000
Duration                         : 1h 58mn
Bit rate mode                    : Constant
Bit rate                         : 448 Kbps
Channel(s)                       : 6 channels
Channel positions                : Front: L C R, Surround: L R, LFE
Sampling rate                    : 48.0 KHz
Stream size                      : 378 MiB (17%)
Alignment                        : Split accross interleaves
Interleave, duration             : 42 ms (1.00 video frame)
Interleave, preload duration     : 500 ms
Title                            : Russian Dub

General
Complete name                    : D:\Video\Movies\Releases\Byzantium.2012.BDRip.XviD.AC3.Rus.D.HQ.Underverse.Eng.ac3
Format                           : AC-3
Format/Info                      : Audio Coding 3
File size                        : 378 MiB
Duration                         : 1h 58mn
Overall bit rate                 : 448 Kbps

Audio
Format                           : AC-3
Format/Info                      : Audio Coding 3
Duration                         : 1h 58mn
Bit rate mode                    : Constant
Bit rate                         : 448 Kbps
Channel(s)                       : 6 channels
Channel positions                : Front: L C R, Surround: L R, LFE
Sampling rate                    : 48.0 KHz
Stream size                      : 378 MiB (100%)

picpicpicpic
Для увеличения картинки щелкните мышкой по превью

Этот торрент недоступен для скачивания без регистрации, однако доступен по публичной magnet-ссылке (источники с публичных трекеров). Перед использованием ссылки прочтите, пожалуйста Пользовательское соглашение, а также как можно дольше оставайтесь на раздаче! Для того, чтобы скачать сам торрент-файл (который видит больше источников), а также для того, чтобы поблагодарить релизера, вам необходимо зарегистрироваться. Если регистрироваться лень - вы можете также попробовать скачать релиз по нашим партнерским ссылкам ниже.

[underverse.su].t50112.torrent
Трекер: Зарегистрирован   [ 12.02.2015 13:34 ]  

Статус: проверено (by Паукан at 20.02.2015 07:53)
Поблагодарили: 1 человек
Тип торрента: публичный - доступные источники с открытых трекеров: 
Размер: 2,17 GB (занимает 1/2 DVDR, для записи нужно 1 болванка DVDR/RW)
 
 
Похожие темы
Форум Тема Автор Торрент Отв. Посл. сооб.
Зарубежное кино [DVDRip, Low-Res HDRip, и т.д.] Византия / Byzantium (Нил Джордан) [2012 г., фэнтези, триллер, драма, WEB-DLRip] VO Чертёнок
0 | 0

0 | 7200

64

07.08.2013 19:13

Зарубежное кино [DVDRip, Low-Res HDRip, и т.д.] Византия / Byzantium (Нил Джордан / Neil Jordan) [2012 г., фэнтези, триллер, драма, WEB-DLRip] DVO Паукан
2 | 0

0 | 5297

36

21.08.2013 17:54

Зарубежное кино [DVDRip, Low-Res HDRip, и т.д.] Византия / Byzantium (Нил Джордан / Neil Jordan) [2012 г., ужасы, фэнтези, триллер, драма, HDRip] Dub + Original 90ytr90
6 | 0

0 | 1130

23

18.09.2013 08:09

Зарубежное кино [DVDRip, Low-Res HDRip, и т.д.] Византия / Byzantium (Нил Джордан / Neil Jordan) [2012 г., ужасы, фэнтези, триллер, драма, HDRip] Dub 90ytr90
0 | 0

0 | 382

12

18.09.2013 08:15

Зарубежное кино [HDDVDRip / BDRip / WEB-DL / HDTV 1080/720р] Византия / Byzantium (Нил Джордан / Neil Jordan) [2012 г., ужасы, фэнтези, триллер, драма, BDRip 720p] Dub + Original 90ytr90
1 | 1

0 | 2582

10

18.09.2013 08:28

Зарубежное кино [HDDVDRip / BDRip / WEB-DL / HDTV 1080/720р] Византия / Byzantium (Нил Джордан) [2012 г., Ужасы, Драма, Триллер, BDRip 720p] Dub (RUS) + Original (ENG) + Subs (RUS, ENG) Ведьмочка
5 | 0

0 | 909

7

28.06.2014 04:54


Яндекс.Метрика powered by Sphinx


В Н И М А Н И Е
Сайт не распространяет и не хранит электронные версии произведений, а лишь бесплатно и без коммерческой выгоды (не требуя взамен платы,
SMS и т.д.) предоставляет доступ к создаваемому пользователями каталогу ссылок на торрент-файлы, которые содержат только списки хеш-сумм.
Убедительная просьба с жалобами обращаться напрямую к пользователю, разместившему торрент файл.

Вверх