Loading...
Error

Гудзонский ястреб / Hudson Hawk (Майкл Леманн / Michael Lehmann) [1991, США, криминальная комедия, BDRip-AVC] Dub (Blu-ray EUR) + AVO (А.Гаврилов) + AVO (Ю.Живов) + AVO (В.Горчаков) + MVO (Rus) + Sub Rus, Eng + Original Eng

 
Автор Сообщение

90ytr90 

10-Фев-2015 15:51

Гудзонский ястреб / Hudson Hawk

Страна: США
Жанр: криминальная комедия
Год выпуска: 1991
Продолжительность: 01:39:53

Перевод: Профессиональный (дублированный) Blu-ray EUR
Перевод 2: Авторский (одноголосый закадровый) А.Гаврилов
Перевод 3: Авторский (одноголосый закадровый) Ю.Живов Отдельно
Перевод 4: Авторский (одноголосый закадровый) В.Горчаков Отдельно
Перевод 5: Многоголосый закадровый (Первый канал) Отдельно

Cубтитры: Rus, Eng
Оригинальная аудиодорожка: английский

Режиссер: Майкл Леманн / Michael Lehmann

В ролях:
Брюс Уиллис / Bruce Willis
Энди МакДауэлл / Andie MacDowell
Дэнни Айелло, Джэймс Коберн, Ричард Е. Грант, Сандра Бернард, Дон Харви, Дэвид Карузо, Фрэнк Сталлоне
Описание:
«Гудзонский Ястреб» — прозвище непревзойденного вора Эдди, который может открыть любой сейф за считанные секунды. Выйдя из тюрьмы, король кражи решает уйти на заслуженный отдых. Но слишком многие на свободе заинтересованы в его криминальном таланте.
С помощью шантажа коварные злоумышленники заставляют Эдди совершить ограбление века: он должен похитить три шедевра Леонардо Да Винчи из самых охраняемых музеев мира всего за несколько дней! «Гудзонский Ястреб» снова отправляется на охоту, но на этот раз в бескрайнем небе он не одинок…

       

Качество видео: BDRip-AVC HUDSON_HAWK_1991_BDREMUX_HDCLUB
Формат видео: MKV

Видео: AVC 4439 Kbps 1104 x 598 (1.846) 23.976 fps
Аудио: AC-3 256 Kbps 4 channels, 48.0 KHz DUB Rus Blu-ray EUR
Аудио 2: AC-3 224 Kbps 2 channels, 48.0 KHz AVO А.Гаврилов
Аудио 3: AC-3 224 Kbps 2 channels, 48.0 KHz Eng

============ Отдельно =============
Аудио 4: AC-3 224 Kbps 2 channels, 48.0 KHz AVO Ю.Живов Отдельно
Аудио 5: AC-3 224 Kbps 2 channels, 48.0 KHz AVO В.Горчаков Отдельно
Аудио 6: AC-3 192 Kbps 2 channels, 48.0 KHz MVO (Первый канал) Отдельно

Формат субтитров: softsub (SRT)

MediaInfo | Log
x264 [info]: frame I:1303 Avg QP:19.80 size: 82519
x264 [info]: frame P:28058 Avg QP:21.67 size: 42100
x264 [info]: frame B:114351 Avg QP:23.93 size: 18480
x264 [info]: consecutive B-frames: 1.6% 2.0% 5.0% 18.1% 16.4% 31.3% 9.1% 8.6% 3.3% 1.7% 1.0% 1.3% 0.5%
x264 [info]: mb I I16..4: 4.8% 83.4% 11.8%
x264 [info]: mb P I16..4: 0.4% 17.8% 1.1% P16..4: 27.4% 33.0% 12.9% 1.2% 0.1% skip: 6.2%
x264 [info]: mb B I16..4: 0.0% 2.1% 0.1% B16..8: 41.3% 20.5% 4.9% direct: 6.6% skip:24.4% L0:44.7% L1:46.7% BI: 8.6%
x264 [info]: 8x8 transform intra:91.5% inter:60.4%
x264 [info]: coded y,uvDC,uvAC intra: 94.1% 85.0% 61.6% inter: 38.5% 25.8% 3.6%
x264 [info]: i16 v,h,dc,p: 48% 19% 8% 24%
x264 [info]: i8 v,h,dc,ddl,ddr,vr,hd,vl,hu: 10% 6% 11% 11% 14% 13% 12% 11% 11%
x264 [info]: i4 v,h,dc,ddl,ddr,vr,hd,vl,hu: 19% 6% 6% 9% 14% 14% 12% 11% 11%
x264 [info]: i8c dc,h,v,p: 43% 22% 18% 18%
x264 [info]: Weighted P-Frames: Y:10.5% UV:6.2%
x264 [info]: ref P L0: 40.7% 9.6% 19.2% 7.5% 6.4% 4.3% 3.9% 1.9% 1.9% 1.5% 1.5% 1.3% 0.2% 0.0%
x264 [info]: ref B L0: 67.2% 13.4% 6.8% 3.7% 2.6% 2.2% 1.6% 1.0% 0.8% 0.5% 0.2%
x264 [info]: ref B L1: 91.3% 8.7%
x264 [info]: kb/s:4540.46

x264 [total]: encoded 143712 frames, 7.62 fps, 4540.46 kb/s, duration 5:14:29.17

Format : Matroska
Format version : Version 4 / Version 2
File size : 3.66 GiB
Duration : 1h 39mn
Overall bit rate : 5 247 Kbps
Encoded date : UTC 2014-11-01 22:14:42
Writing application : mkvmerge v6.7.0 ('Back to the Ground') 32bit built on Jan 8 2014 15:03:17
Writing library : libebml v1.3.0 + libmatroska v1.4.1

Video
ID : 1
Format : AVC
Format/Info : Advanced Video Codec
Format profile : High@L4.1
Format settings, CABAC : Yes
Format settings, ReFrames : 12 frames
Codec ID : V_MPEG4/ISO/AVC
Duration : 1h 39mn
Bit rate : 4 439 Kbps
Width : 1 104 pixels
Height : 598 pixels
Display aspect ratio : 1.85:1
Frame rate mode : Constant
Frame rate : 23.976 fps
Color space : YUV
Chroma subsampling : 4:2:0
Bit depth : 8 bits
Scan type : Progressive
Bits/(Pixel*Frame) : 0.280
Stream size : 3.10 GiB (85%)
Title : Hudson Hawk [*другой трекер*]
Writing library : x264 core 142 r2453kMod ea0ca51
Encoding settings : cabac=1 / ref=12 / deblock=1:-2:-2 / analyse=0x3:0x133 / me=umh / subme=11 / psy=1 / fade_compensate=0.00 / psy_rd=1.00:0.05 / mixed_ref=1 / me_range=32 / chroma_me=1 / trellis=2 / 8x8dct=1 / cqm=0 / deadzone=21,11 / fast_pskip=0 / chroma_qp_offset=-3 / threads=12 / lookahead_threads=3 / sliced_threads=0 / nr=0 / decimate=1 / interlaced=0 / bluray_compat=0 / constrained_intra=0 / fgo=0 / bframes=12 / b_pyramid=2 / b_adapt=2 / b_bias=0 / direct=1 / weightb=1 / open_gop=0 / weightp=2 / keyint=250 / keyint_min=23 / scenecut=40 / intra_refresh=0 / rc_lookahead=60 / rc=crf / mbtree=0 / crf=20.4000 / qcomp=0.60 / qpmin=0 / qpmax=69 / qpstep=4 / vbv_maxrate=50000 / vbv_bufsize=62500 / crf_max=0.0 / nal_hrd=none / filler=0 / ip_ratio=1.40 / pb_ratio=1.30 / aq=3:0.90
Language : English
Default : Yes
Forced : No

Audio #1
ID : 2
Format : AC-3
Format/Info : Audio Coding 3
Mode extension : CM (complete main)
Format settings, Endianness : Big
Codec ID : A_AC3
Duration : 1h 39mn
Bit rate mode : Constant
Bit rate : 256 Kbps
Channel(s) : 4 channels
Channel positions : Front: L C R, Back: C
Sampling rate : 48.0 KHz
Bit depth : 16 bits
Compression mode : Lossy
Stream size : 183 MiB (5%)
Title : Dub Blu-ray EUR
Language : Russian
Default : Yes
Forced : No

Audio #2
ID : 3
Format : AC-3
Format/Info : Audio Coding 3
Mode extension : CM (complete main)
Format settings, Endianness : Big
Codec ID : A_AC3
Duration : 1h 39mn
Bit rate mode : Constant
Bit rate : 224 Kbps
Channel(s) : 2 channels
Channel positions : Front: L R
Sampling rate : 48.0 KHz
Bit depth : 16 bits
Compression mode : Lossy
Stream size : 160 MiB (4%)
Title : AVO A. Gavrilov
Language : Russian
Default : No
Forced : No

Audio #3
ID : 4
Format : AC-3
Format/Info : Audio Coding 3
Mode extension : CM (complete main)
Format settings, Endianness : Big
Codec ID : A_AC3
Duration : 1h 39mn
Bit rate mode : Constant
Bit rate : 224 Kbps
Channel(s) : 2 channels
Channel positions : Front: L R
Sampling rate : 48.0 KHz
Bit depth : 16 bits
Compression mode : Lossy
Stream size : 160 MiB (4%)
Title : Original
Language : English
Default : No
Forced : No

Text #1
ID : 5
Format : UTF-8
Codec ID : S_TEXT/UTF8
Codec ID/Info : UTF-8 Plain Text
Language : Russian
Default : No
Forced : No

Text #2
ID : 6
Format : UTF-8
Codec ID : S_TEXT/UTF8
Codec ID/Info : UTF-8 Plain Text
Language : English
Default : No
Forced : No

Menu
00:00:00.000 : en:00:00:00.000
00:12:49.268 : en:00:12:49.268
00:19:17.614 : en:00:19:17.614
00:24:46.401 : en:00:24:46.401
00:30:23.363 : en:00:30:23.363
00:37:58.108 : en:00:37:58.108
00:45:03.282 : en:00:45:03.282
00:53:40.217 : en:00:53:40.217
01:00:12.692 : en:01:00:12.692
01:07:01.851 : en:01:07:01.851
01:11:03.801 : en:01:11:03.801
01:16:32.962 : en:01:16:32.962
01:20:53.890 : en:01:20:53.890
01:26:58.128 : en:01:26:58.128
01:31:05.376 : en:01:31:05.376
01:35:45.029 : en:01:35:45.029

pic pic pic
Для увеличения картинки щелкните мышкой по превью
Похожие темы
Форум Тема Автор Торрент Отв. Посл. сооб.
Зарубежное кино [DVDRip, Low-Res HDRip, и т.д.] Гудзонский ястреб / Hudson Hawk (Майкл Леманн / Michael Lehmann) [1991 г., боевик, комедия, приключения, HDRip] Dub 90ytr90
4 | 0

0 | 175

6

10.02.2015 15:46

Зарубежное кино [HDDVDRip / BDRip / WEB-DL / HDTV 1080/720р] Гудзонский ястреб / Hudson Hawk (Майкл Леманн) [1991 г., боевик, комедия, приключения, BDRip] 2xDub + 2xMVO + MVO (Ukr) + 5xAVO + Original (Eng) + Sub (Rus, Eng) 90ytr90
3 | 0

0 | 239

3

10.02.2015 15:42


Яндекс.Метрика powered by Sphinx


В Н И М А Н И Е
Сайт не распространяет и не хранит электронные версии произведений, а лишь бесплатно и без коммерческой выгоды (не требуя взамен платы,
SMS и т.д.) предоставляет доступ к создаваемому пользователями каталогу ссылок на торрент-файлы, которые содержат только списки хеш-сумм.
Убедительная просьба с жалобами обращаться напрямую к пользователю, разместившему торрент файл.

Вверх