Loading...
Error

Сумеречная страна / Skumringslandet (Пауль Магнус Лундё) [2014 г., фэнтези, криминал, детектив, HDRip] DVO (DeadSno & den904)

Статистика раздачи
Размер:  1,47 GB   |    Зарегистрирован:  1 год 9 месяцев   |    Скачан:  4 раза

Полного источника не было: 1 год 8 месяцев

Сидов:  0  |  0 KB/s  ]   Личеров:  0  |  0 KB/s  ]

* - сиды/пиры с внешних источников

   
 
Автор Сообщение

90ytr90 

09-Фев-2015 07:44

Сумеречная страна / Skumringslandet


Название: Сумеречная страна
Оригинальное название: Skumringslandet
Год выхода: 2014
Жанр: фэнтези, криминал, детектив
Режиссер-постановщик: Пауль Магнус Лундё
В фильме снимались: Лейф Нюгор, Ким Бодния, Йёрген Лангхелле, Андреас Вильсон, Сверре Анкер Оусдаль, Томас Аске Берг, Эвен Бремнер, Гер Юли Фьелль, Ларс Могенс Осе, Марианна Мэланн Фредбу, Эспен Хана, Ян Хокон Хансен, Эрик Хельгесен, Кристина Кнабен Хеннестад, Фредрик Финне Хальворсен

Описание:
Норвегия, 1348 год. Свирепствует чума. Двое братьев, Вильхельм и Ансгар, переживают не лучшие времена. Обвиненный в колдовстве и сговоре с дьяволом, Ансгар вынужден скрываться. Повсюду находят изуродованные тела жителей местной деревушки. Народ напуган и во всем винит Ансгара, который стал для них ночным кошмаром. Он шлет письмо брату в Париж с мольбой о помощи, и Вильхельм возвращается на родину. Неужели его брат действительно виновен в этих жутких преступлениях? Вскоре Вильхельму открываются еще более страшные тайны...




Страна: Норвегия
Студия: Vidvinkel Film
Продолжительность: 01:22:05
Перевод: Любительский двухголосый, закадровый [DeadSno & den904]
Перевод на русский язык [Станислав Бельков]

Кодек: XviD
Качество: HDRip
Видео: 720x304 (2.35:1), 24 fps ~ 2113 Kbps
Звук: AC3, 48 KHz 6 ch ~ 448 Kb/s
Субтитры: отсутствуют

pic pic pic
Для увеличения картинки щелкните мышкой по превью
Общее
Полное имя : Q:TorFThe.Veil.of.Twilight.2014.HDRip.avi
Формат : AVI
Формат/Информация : Audio Video Interleave
Размер файла : 1,47 Гбайт
Продолжительность : 1 ч. 22 м.
Общий поток : 2571 Кбит/сек
Программа кодирования : VirtualDubMod 1.5.10.2 (build 2542/release)
Библиотека кодирования : VirtualDubMod build 2542/release

Видео
Идентификатор : 0
Формат : MPEG-4 Visual
Профиль формата : Advanced Simple@L5
Параметр BVOP формата : 2
Параметр QPel формата : Нет
Параметр GMC формата : Без точки перехода
Параметр матрицы формата : Default (MPEG)
Идентификатор кодека : XVID
Идентификатор кодека/Подсказка : XviD
Продолжительность : 1 ч. 22 м.
Битрейт : 2113 Кбит/сек
Ширина : 720 пикселей
Высота : 304 пикселя
Соотношение сторон : 2,35:1
Частота кадров : 24,000 кадра/сек
Цветовое пространство : YUV
Субдискретизация насыщенности : 4:2:0
Битовая глубина : 8 бит
Тип развёртки : Прогрессивная
Метод сжатия : С потерями
Бит/(Пиксели*Кадры) : 0.402
Размер потока : 1,21 Гбайт (82%)
Библиотека кодирования : XviD 1.2.1 (UTC 2008-12-04)

Аудио
Идентификатор : 1
Формат : AC-3
Формат/Информация : Audio Coding 3
Расширение режима : CM (complete main)
Идентификатор кодека : 2000
Продолжительность : 1 ч. 22 м.
Вид битрейта : Постоянный
Битрейт : 448 Кбит/сек
Каналы : 6 каналов
Расположение каналов : Front: L C R, Side: L R, LFE
Частота : 48,0 КГц
Битовая глубина : 16 бит
Метод сжатия : С потерями
Размер потока : 263 Мбайт (17%)
Выравнивание : Разделение по промежуткам
Продолжительность промежутка : 42 мс. (1,00 видеокадр)
Время предзагрузки промежутка : 500 мс.

Этот торрент недоступен для скачивания без регистрации, однако доступен по публичной magnet-ссылке (источники с публичных трекеров). Перед использованием ссылки прочтите, пожалуйста Пользовательское соглашение, а также как можно дольше оставайтесь на раздаче! Для того, чтобы скачать сам торрент-файл (который видит больше источников), а также для того, чтобы поблагодарить релизера, вам необходимо зарегистрироваться. Если регистрироваться лень - вы можете также попробовать скачать релиз по нашим партнерским ссылкам ниже.

[underverse.su].t49648.torrent
Трекер: Зарегистрирован   [ 09.02.2015 07:44 ]  

Статус: проверено (by 90ytr90 at 09.02.2015 17:56)
Поблагодарили: пока никто не поблагодарил...
Тип торрента: публичный - доступные источники с открытых трекеров: 
Размер: 1,47 GB (занимает 0,34 DVDR, для записи нужно 1 болванка DVDR/RW)
 
 
Похожие темы
Форум Тема Автор Торрент Отв. Посл. сооб.
Зарубежное кино [HDDVDRip / BDRip / WEB-DL / HDTV 1080/720р] Сумеречная страна / Skumringslandet (Пауль Магнус Лундё) [2014 г., фэнтези, криминал, детектив, BDRip 720p] DVO (DeadSno & den904) + Original (Nor) + Sub (Eng) 90ytr90
19 | 0

0 | 492

8

22.02.2015 07:49

* Архив Сумеречная зона (сезон 1, серии 1-43) / The Twilight Zone (Джерри Ливайн, Боб Балабан, Джо Чаппелль, Питер О'Фаллон, Дэбби Аллен, Кевин Брэй, Тим Мэтисон, Лу Да radjiv

1 | 1185

30.08.2010 00:06


Яндекс.Метрика powered by Sphinx


В Н И М А Н И Е
Сайт не распространяет и не хранит электронные версии произведений, а лишь бесплатно и без коммерческой выгоды (не требуя взамен платы,
SMS и т.д.) предоставляет доступ к создаваемому пользователями каталогу ссылок на торрент-файлы, которые содержат только списки хеш-сумм.
Убедительная просьба с жалобами обращаться напрямую к пользователю, разместившему торрент файл.

Вверх