Loading...
Error

Разговор Начистоту / Straight Talk (Барнет Келлман) [1992 г., Мелодрама, Комедия, BDRip-AVC] 2-DVO (RUS, ВидеоСервис / Ульпаней Эль-Ром) + Original (ENG)

Статистика раздачи
Размер:  2,08 GB   |    Зарегистрирован:  1 год 9 месяцев   |    Скачан:  1 раз

Полного источника не было: 1 год 8 месяцев

Сидов:  0  |  0 KB/s  ]   Личеров:  0  |  0 KB/s  ]

* - сиды/пиры с внешних источников

   
 
Автор Сообщение

Ведьмочка Пол:Жен

08-Фев-2015 16:52

Разговор Начистоту / Straight Talk
«Dreams do come true...sometimes»


Страна: США
Год выпуска: 1992
Жанр: Мелодрама, Комедия
Продолжительность: 01:30:41
Режиссёр: Барнет Келлман
В ролях: Долли Партон, Джеймс Вудс, Гриффин Данн, Майкл Мэдсен, Дирдре О`Коннелл, Джон Сэйлз, Тери Хэтчер, Спэлдинг Грей, Джерри Орбах
Сюжет фильма:
Встречают по фамилии, провожают по… Как иногда бывает полезно, когда среди знаменитостей находится твой однофамилец. Ширли Кэньон смогла в этом полностью убедиться, решив однажды в поисках лучшей жизни переехать в Чикаго, где в поисках работы забрела на одну из радиостанций.

Там ее совершенно случайно по причине схожести фамилий спутали с известным психологом. Так неожиданно началась звездная карьера Доктора Ширли.


Озвучивание:
  • Профессиональный, Двухголосный, Русский [ВидеоСервис]
  • Профессиональный, Двухголосный, Русский [Ульпаней Эль-Ром]
  • Оригинал, Английский

Качество видео: BDRip-AVC
Формат: MKV

Видео: AVC, 1024x576 (16:9), 23.976 fps, ~2700 Кбит/сек
Аудио #1: AC-3, 192 Кбит/сек, 2 Канала, 48.0 КГц
Аудио #2: AC-3, 192 Кбит/сек, 2 Канала, 48.0 КГц
Аудио #3: AC-3, 192 Кбит/сек, 2 Канала, 48.0 КГц

Rip by:



Общее
Уникальный идентификатор : 186774727452735487114937316993964864260 (0x8C83810921E288D884383424AF1E7304)
Полное имя : \Razgovor.nachistoty.1992.x264.BDRip.(AVC)-MediaClub.mkv
Формат : Matroska
Версия формата : Version 4 / Version 2
Размер файла : 2,08 Гбайт
Продолжительность : 1 ч. 30 м.
Общий поток : 3278 Кбит/сек
Название фильма : = MediaClub = rip by Painter
Дата кодирования : UTC 2015-02-05 13:48:31
Программа кодирования : mkvmerge v7.5.0 ('Glass Culture') 32bit built on Jan 4 2015 16:37:25
Библиотека кодирования : libebml v1.3.1 + libmatroska v1.4.2
DURATION : 01:30:41.344000000
NUMBER_OF_FRAMES : 170042
NUMBER_OF_BYTES : 130592256
_STATISTICS_WRITING_APP : mkvmerge v7.5.0 ('Glass Culture') 32bit built on Jan 4 2015 16:37:25
_STATISTICS_WRITING_DATE_UTC : 2015-02-05 13:48:31
_STATISTICS_TAGS : BPS DURATION NUMBER_OF_FRAMES NUMBER_OF_BYTES

Видео
Идентификатор : 1
Формат : AVC
Формат/Информация : Advanced Video Codec
Профиль формата : High@L4.1
Параметр CABAC формата : Да
Параметр ReFrames формата : 10 кадров
Идентификатор кодека : V_MPEG4/ISO/AVC
Продолжительность : 1 ч. 30 м.
Битрейт : 2700 Кбит/сек
Ширина : 1024 пикселя
Высота : 576 пикселей
Соотношение сторон : 16:9
Режим частоты кадров : Постоянный
Частота кадров : 23,976 кадра/сек
Цветовое пространство : YUV
Субдискретизация насыщенности : 4:2:0
Битовая глубина : 8 бит
Тип развёртки : Прогрессивная
Бит/(Пиксели*Кадры) : 0.191
Размер потока : 1,67 Гбайт (80%)
Библиотека кодирования : x264 core 142 r2409+42 04be48a tMod [8-bit@4:2:0 X86]
Настройки программы : cabac=1 / ref=10 / deblock=1:-3:-3 / analyse=0x3:0x133 / me=umh / subme=11 / psy=1 / fade_compensate=0.00 / psy_rd=1.00:0.20 / mixed_ref=1 / me_range=32 / chroma_me=1 / trellis=2 / 8x8dct=1 / cqm=0 / deadzone=21,11 / fast_pskip=0 / chroma_qp_offset=-3 / threads=6 / lookahead_threads=1 / sliced_threads=0 / nr=0 / decimate=0 / interlaced=0 / bluray_compat=0 / constrained_intra=0 / fgo=0 / bframes=10 / b_pyramid=2 / b_adapt=2 / b_bias=0 / direct=3 / weightb=1 / open_gop=0 / weightp=2 / keyint=240 / keyint_min=23 / scenecut=40 / intra_refresh=0 / rc=2pass / mbtree=0 / bitrate=2700 / ratetol=1.0 / qcomp=0.60 / qpmin=0:0:0 / qpmax=69:69:69 / qpstep=4 / cplxblur=20.0 / qblur=0.5 / ip_ratio=1.40 / pb_ratio=1.30 / aq=1:1.00 / aq-sensitivity=10.00 / aq-factor=1.00:1.00:1.00 / aq2=0 / aq3=0
Язык : English
Default : Да
Forced : Нет
DURATION : 01:30:41.311000000
NUMBER_OF_FRAMES : 130461
NUMBER_OF_BYTES : 1836265554
_STATISTICS_WRITING_APP : mkvmerge v7.5.0 ('Glass Culture') 32bit built on Jan 4 2015 16:37:25
_STATISTICS_WRITING_DATE_UTC : 2015-02-05 13:48:31
_STATISTICS_TAGS : BPS DURATION NUMBER_OF_FRAMES NUMBER_OF_BYTES

Аудио #1
Идентификатор : 2
Формат : AC-3
Формат/Информация : Audio Coding 3
Расширение режима : CM (complete main)
Параметр Endianness формата : Big
Идентификатор кодека : A_AC3
Продолжительность : 1 ч. 30 м.
Вид битрейта : Постоянный
Битрейт : 192 Кбит/сек
Каналы : 2 канала
Расположение каналов : Front: L R
Частота : 48,0 КГц
Битовая глубина : 16 бит
Метод сжатия : С потерями
Размер потока : 125 Мбайт (6%)
Заголовок : Двухголосый (ВидеоСервис)
Язык : Russian
Default : Да
Forced : Нет

Аудио #2
Идентификатор : 3
Формат : AC-3
Формат/Информация : Audio Coding 3
Расширение режима : CM (complete main)
Параметр Endianness формата : Big
Идентификатор кодека : A_AC3
Продолжительность : 1 ч. 30 м.
Вид битрейта : Постоянный
Битрейт : 192 Кбит/сек
Каналы : 2 канала
Расположение каналов : Front: L R
Частота : 48,0 КГц
Битовая глубина : 16 бит
Метод сжатия : С потерями
Размер потока : 125 Мбайт (6%)
Заголовок : Двухголосый (Ульпаней Эль-Ром)
Язык : Russian
Default : Нет
Forced : Нет

Аудио #3
Идентификатор : 4
Формат : AC-3
Формат/Информация : Audio Coding 3
Расширение режима : CM (complete main)
Параметр Endianness формата : Big
Идентификатор кодека : A_AC3
Продолжительность : 1 ч. 30 м.
Вид битрейта : Постоянный
Битрейт : 192 Кбит/сек
Каналы : 2 канала
Расположение каналов : Front: L R
Частота : 48,0 КГц
Битовая глубина : 16 бит
Метод сжатия : С потерями
Размер потока : 125 Мбайт (6%)
Язык : English
Default : Нет
Forced : Нет


picpicpicpicpic
Для увеличения картинки щелкните мышкой по превью



Этот торрент недоступен для скачивания без регистрации, однако доступен по публичной magnet-ссылке (источники с публичных трекеров). Перед использованием ссылки прочтите, пожалуйста Пользовательское соглашение, а также как можно дольше оставайтесь на раздаче! Для того, чтобы скачать сам торрент-файл (который видит больше источников), а также для того, чтобы поблагодарить релизера, вам необходимо зарегистрироваться. Если регистрироваться лень - вы можете также попробовать скачать релиз по нашим партнерским ссылкам ниже.

[underverse.su].t49533.torrent
Трекер: Зарегистрирован   [ 08.02.2015 16:52 ]  

Статус: проверено (by Ведьмочка at 08.02.2015 16:52)
Поблагодарили: 1 человек
Тип торрента: публичный - доступные источники с открытых трекеров: 
Размер: 2,08 GB (занимает 0,47 DVDR, для записи нужно 1 болванка DVDR/RW)
 
 
Похожие темы
Форум Тема Автор Торрент Отв. Посл. сооб.
Зарубежное кино [HDDVDRip / BDRip / WEB-DL / HDTV 1080/720р] Разговор Начистоту / Straight Talk (Барнет Келлман) [1992 г., Мелодрама, Комедия, BDRip 720p] 2-DVO (RUS, ВидеоСервис / Ульпаней Эль-Ром) + Original (ENG) Ведьмочка
2 | 0

0 | 300

1

08.02.2015 16:33


Яндекс.Метрика powered by Sphinx


В Н И М А Н И Е
Сайт не распространяет и не хранит электронные версии произведений, а лишь бесплатно и без коммерческой выгоды (не требуя взамен платы,
SMS и т.д.) предоставляет доступ к создаваемому пользователями каталогу ссылок на торрент-файлы, которые содержат только списки хеш-сумм.
Убедительная просьба с жалобами обращаться напрямую к пользователю, разместившему торрент файл.

Вверх