Loading...
Error

Ярость / Fury (Дэвид Эйр / David Ayer) [2014 г., боевик, драма, военный, BDRip] Dub HQ Underverse

Статистика раздачи
Размер:  2,17 GB   |    Зарегистрирован:  1 год 9 месяцев   |    Скачан:  20 раз

Полного источника не было: 1 месяц 6 дней

Сидов:  0  |  0 KB/s  ]   Личеров:  0  |  0 KB/s  ]

* - сиды/пиры с внешних источников

   
 
Автор Сообщение

HQ Underverse 

08-Фев-2015 12:13

Ярость / Fury


Год выпуска: 2014
Жанр: боевик, драма, военный
Страна: США , Великобритания , Китай
Режиссер: Дэвид Эйр / David Ayer
В ролях: Брэд Питт, Логан Лерман, Шайа ЛаБаф, Майкл Пенья, Джон Бернтал, Джейсон Айзекс, Джим Пэррак, Брэд Уильям Хенке, Кевин Вэнс, Завьер Сэмюэл
Сюжет фильма:
Стоит апрель 1945 года, и победа над немцами уже близка: союзники уверенно продвигаются вглубь вражеской территории, и оказываемое им сопротивление становится слабее день ото дня. Это, однако, совсем не значит, что на пути к победе союзные войска не потеряют еще множество людей, и многие солдаты сознают, что смерть ждет на расстоянии вытянутой руки. Среди закаленных в бою пессимистов, каждый день ведущих ожесточенные бои во имя победы, экипаж танка, на чьем дуле намалевано слово «Ярость».

Командир экипажа, известный как Уордэдди, воевавший с нацистскими войсками сначала в Африке, а потом в Европе, преследует одну цель — выжить в войне и сохранить жизнь своим людям. Этот относительно амбициозный план оказывается под угрозой, когда к его экипажу присоединяется зеленый новобранец Норман Эллисон, никогда раньше не воевавший и еще не успевший привыкнуть к тому, что должен быстро и без колебаний обрывать человеческие жизни. Надежда выжить становится совсем призрачной, когда экипажу «Ярости» приходится принять участие в самоубийственной миссии.

  • Мировая премьера: 15 октября 2014
  • Российская премьера: 30 октября 2014

/
Качество видео: BDRip

Продолжительность: 02:14:38
Формат: avi
Видео: XviD, 720x304, 1851 kbps
Аудио #1: русский, дублированный [лицензия], AC3 5.1, 448 kbps
Аудио #2: английский, оригинал, AC3 5.1, 448 kbps (отдельным файлом)
Субтитры #1: внешние, SRT, русский
Субтитры #2: внешние, SRT, английский

Семпл: http://multi-up.com/1031816

Релиз группы:

Код:

General
Complete name                    : D:\Video\Movies\Releases\Fury.2014.BDRip.XviD.AC3.Rus.D.HQ.Underverse.avi
Format                           : AVI
Format/Info                      : Audio Video Interleave
Format profile                   : OpenDML
File size                        : 2.17 GiB
Duration                         : 2h 14mn
Overall bit rate                 : 2 311 Kbps
Writing application              : VirtualDubMod 1.5.10.3 | www.virtualdub-fr.org || (build 2550/release)
Writing library                  : VirtualDubMod build 2550/release

Video
ID                               : 0
Format                           : MPEG-4 Visual
Format profile                   : Streaming Video@L1
Format settings, BVOP            : Yes
Format settings, QPel            : No
Format settings, GMC             : No warppoints
Format settings, Matrix          : Custom
Codec ID                         : XVID
Codec ID/Hint                    : XviD
Duration                         : 2h 14mn
Bit rate                         : 1 851 Kbps
Width                            : 720 pixels
Height                           : 304 pixels
Display aspect ratio             : 2.35
Frame rate                       : 23.976 fps
Resolution                       : 24 bits
Colorimetry                      : 4:2:0
Scan type                        : Progressive
Bits/(Pixel*Frame)               : 0.353
Stream size                      : 1.74 GiB (80%)
Writing library                  : XviD 64

Audio
ID                               : 1
Format                           : AC-3
Format/Info                      : Audio Coding 3
Codec ID                         : 2000
Duration                         : 2h 14mn
Bit rate mode                    : Constant
Bit rate                         : 448 Kbps
Channel(s)                       : 6 channels
Channel positions                : Front: L C R, Surround: L R, LFE
Sampling rate                    : 48.0 KHz
Stream size                      : 431 MiB (19%)
Alignment                        : Split accross interleaves
Interleave, duration             : 42 ms (1.00 video frame)
Interleave, preload duration     : 500 ms
Title                            : Russian Dub

General
Complete name                    : D:\Video\Movies\Releases\Fury.2014.BDRip.XviD.AC3.Rus.D.HQ.Underverse.Eng.ac3
Format                           : AC-3
Format/Info                      : Audio Coding 3
File size                        : 431 MiB
Duration                         : 2h 14mn
Overall bit rate                 : 448 Kbps

Audio
Format                           : AC-3
Format/Info                      : Audio Coding 3
Duration                         : 2h 14mn
Bit rate mode                    : Constant
Bit rate                         : 448 Kbps
Channel(s)                       : 6 channels
Channel positions                : Front: L C R, Surround: L R, LFE
Sampling rate                    : 48.0 KHz
Stream size                      : 431 MiB (100%)

picpicpicpic
Для увеличения картинки щелкните мышкой по превью

Этот торрент недоступен для скачивания без регистрации, однако доступен по публичной magnet-ссылке (источники с публичных трекеров). Перед использованием ссылки прочтите, пожалуйста Пользовательское соглашение, а также как можно дольше оставайтесь на раздаче! Для того, чтобы скачать сам торрент-файл (который видит больше источников), а также для того, чтобы поблагодарить релизера, вам необходимо зарегистрироваться. Если регистрироваться лень - вы можете также попробовать скачать релиз по нашим партнерским ссылкам ниже.

[underverse.su].t49509.torrent
Трекер: Зарегистрирован   [ 08.02.2015 12:21 ]  

Статус: проверено (by HQ Underverse at 12.02.2015 12:36)
Поблагодарили: 1 человек
Тип торрента: публичный - доступные источники с открытых трекеров: 
Размер: 2,17 GB (занимает 1/2 DVDR, для записи нужно 1 болванка DVDR/RW)
 
 
Похожие темы
Форум Тема Автор Торрент Отв. Посл. сооб.
Зарубежное кино [DVDRip, Low-Res HDRip, и т.д.] Ярость / Fury (Дэвид Эйр / David Ayer) [2014 г., боевик, драма, военный, BDRip] Dub 90ytr90
3 | 0

0 | 395

5

07.02.2015 21:44

Зарубежное кино [DVDRip, Low-Res HDRip, и т.д.] Ярость / Fury (Дэвид Эйр / David Ayer) [2014 г., боевик, драма, военный, HDRip] Dub + hardsub 90ytr90
63 | 2

0 | 638

34

07.02.2015 21:58

Зарубежное кино [DVDRip, Low-Res HDRip, и т.д.] Ярость / Fury (Дэвид Эйр / David Ayer) [2014 г., боевик, драма, военный, BDRip-AVC] Dub + Subs 90ytr90
6 | 0

0 | 436

15

08.02.2015 15:08

Зарубежное кино [DVDRip, Low-Res HDRip, и т.д.] Ярость / Fury (Дэвид Эйр / David Ayer) [2014 г., боевик, драма, военный, HDRip-AVC] Dub 90ytr90
4 | 0

0 | 656

6

14.02.2015 11:32

Зарубежное кино [DVDRip, Low-Res HDRip, и т.д.] Ярость / Fury (Дэвид Эйр / David Ayer) [2014 г., боевик, драма, военный, BDRip-AVC] Dub + Original (Eng) + Subs 90ytr90
1 | 0

0 | 773

19

14.02.2015 11:48

Зарубежное кино [HDDVDRip / BDRip / WEB-DL / HDTV 1080/720р] Ярость / Fury (Дэвид Эйр / David Ayer) [2014 г., боевик, драма, военный, BDRip 720p] Dub (Rus) + Dub (Ukr) + AVO (Матвеев) + Original (Eng) + Subs 90ytr90
1 | 1

0 | 335

5

07.02.2015 20:40

Зарубежное кино [HDDVDRip / BDRip / WEB-DL / HDTV 1080/720р] Ярость / Fury (Дэвид Эйр / David Ayer) [2014 г., боевик, драма, военный, BDRip 1080p] Dub (Rus) + Dub (Ukr) + AVO (Матвеев) + Original (Eng) + Subs 90ytr90
0 | 0

0 | 393

10

07.02.2015 20:45

Зарубежное кино [HDDVDRip / BDRip / WEB-DL / HDTV 1080/720р] Ярость / Fury (Дэвид Эйр / David Ayer) [2014 г., боевик, драма, военный, BDRip 720p] Dub (Rus) + AVO (Матвеев) + Dub (Ukr) + Original (Eng) + Subs 90ytr90
1 | 0

0 | 457

12

08.02.2015 15:35

* Зарубежное кино [HDDVDRip / BDRip / WEB-DL / HDTV 1080/720р] Ярость / Fury (Дэвид Эйр / David Ayer) [2014 г., боевик, драма, военный, BDRip 1080p] Dub (Rus) + Dub (Ukr) + Original (Eng) + Subs 90ytr90

0 | 301

14.02.2015 11:26


Яндекс.Метрика powered by Sphinx


В Н И М А Н И Е
Сайт не распространяет и не хранит электронные версии произведений, а лишь бесплатно и без коммерческой выгоды (не требуя взамен платы,
SMS и т.д.) предоставляет доступ к создаваемому пользователями каталогу ссылок на торрент-файлы, которые содержат только списки хеш-сумм.
Убедительная просьба с жалобами обращаться напрямую к пользователю, разместившему торрент файл.

Вверх