Loading...
Error

Особое мнение / Minority Report (Стивен Спилберг) [2002 г., Фантастика, Боевик, Триллер, BDRip-AVC] Dub (RUS, Лицензия) + MVO (RUS) + 2-AVO (RUS, А. Гаврилов / С. Рябов) + MVO (UKR, ICTV) + Original (ENG) + Subs (RUS, ENG, UKR)

Статистика раздачи
Размер:  5,91 GB   |    Зарегистрирован:  1 год 9 месяцев   |    Скачан:  3 раза

Полного источника не было: 10 месяцев

Сидов:  0  |  0 KB/s  ]   Личеров:  0  |  0 KB/s  ]

* - сиды/пиры с внешних источников

   
 
Автор Сообщение

Ведьмочка Пол:Жен

07-Фев-2015 17:14

Особое мнение / Minority Report
«Спасение - в бегстве»


Страна: США
Год выпуска: 2002
Жанр: Фантастика, Боевик, Триллер
Продолжительность: 02:25:15
Режиссёр: Стивен Спилберг
В ролях: Том Круз, Макс фон Сюдов, Саманта Мортон, Колин Фаррелл, Кэтрин Моррис, Тим Блейк Нельсон, Петер Стормаре, Стив Харрис, Нил МакДонаф, Пэтрик Килпэтрик
Сюжет фильма:
2054 год. Уже шесть лет существует особый предпреступный отдел. На основе психических технологий разработана экспериментальная программа, с помощью которой работники отдела могут узнать о еще не совершенном убийстве и арестовать подозреваемого еще до совершения им преступления.

Такая система осуждения преступников и предотвращения преступлений получает все большее распространение. Эта система работает идеально, но самое страшное начинается тогда, когда ты сам оказываешься обвиненным в еще не совершенном убийстве.

Однажды руководитель предпреступного отдела Джон Андертон сам оказывается подозреваемым преступником. Он обвиняется в том, что совершит убийство человека, которого пока он даже не знает.

Джон не верит в это, но теперь он вынужден сам скрываться от своих коллег. Единственная для него возможность доказать свою невиновность — это показать, что новая программа допускает ошибки и отнюдь не так идеальна, как этого хотелось бы многим…


Озвучивание:
  • Дублированный, Русский [Лицензия]
  • Профессиональный, Многоголосный, Русский
  • Авторский, Одноголосный, Русский [А. Гаврилов]
  • Авторский, Одноголосный, Русский [С. Рябов]
  • Профессиональный, Многоголосный, Украинский [ICTV]
  • Оригинал, Английский

Качество видео: BDRip-AVC
Формат: MKV

Видео: AVC, 1024x428 (2.40:1), 23.976 fps, ~3200 Кбит/сек
Аудио #1: AC-3, 384 Кбит/сек, 6 Каналов, 48.0 КГц
Аудио #2: AC-3, 448 Кбит/сек, 6 Каналов, 48.0 КГц
Аудио #3: AC-3, 448 Кбит/сек, 6 Каналов, 48.0 КГц
Аудио #4: AC-3, 448 Кбит/сек, 6 Каналов, 48.0 КГц
Аудио #5: AC-3, 448 Кбит/сек, 6 Каналов, 48.0 КГц
Аудио #6: AC-3, 448 Кбит/сек, 6 Каналов, 48.0 КГц

Субтитры #1: UTF-8 [Русские]
Субтитры #2: UTF-8 [Украинские]
Субтитры #3: UTF-8 [Английские]

Rip by:



Общее
Уникальный идентификатор : 227307336348644847109407950238609129703 (0xAB01CCF1D88D23409DAD64F4DF4940E7)
Полное имя : \Osoboe.mnenie.2002.x264.BDRip.AVC.MediaClub.mkv
Формат : Matroska
Версия формата : Version 4 / Version 2
Размер файла : 5,91 Гбайт
Продолжительность : 2 ч. 25 м.
Общий поток : 5827 Кбит/сек
Название фильма : -= MediaClub =- rip by Lefevr
Дата кодирования : UTC 2015-02-06 01:52:35
Программа кодирования : mkvmerge v6.1.0 ('Old Devil') built on Mar 4 2013 09:10:42
Библиотека кодирования : libebml v1.3.0 + libmatroska v1.4.0

Видео
Идентификатор : 1
Формат : AVC
Формат/Информация : Advanced Video Codec
Профиль формата : High@L4.1
Параметр CABAC формата : Да
Параметр ReFrames формата : 8 кадров
Идентификатор кодека : V_MPEG4/ISO/AVC
Продолжительность : 2 ч. 25 м.
Битрейт : 3200 Кбит/сек
Ширина : 1024 пикселя
Высота : 428 пикселей
Соотношение сторон : 2,40:1
Режим частоты кадров : Постоянный
Частота кадров : 23,976 кадра/сек
Цветовое пространство : YUV
Субдискретизация насыщенности : 4:2:0
Битовая глубина : 8 бит
Тип развёртки : Прогрессивная
Бит/(Пиксели*Кадры) : 0.305
Размер потока : 3,13 Гбайт (53%)
Заголовок : Osoboe.mnenie.2002.x264.BDRip.AVC.MediaClub
Библиотека кодирования : x264 core 130 r2273 b3065e6
Настройки программы : cabac=1 / ref=8 / deblock=1:-3:-3 / analyse=0x3:0x133 / me=umh / subme=11 / psy=1 / psy_rd=1.00:0.25 / mixed_ref=1 / me_range=32 / chroma_me=1 / trellis=2 / 8x8dct=1 / cqm=0 / deadzone=21,11 / fast_pskip=0 / chroma_qp_offset=-4 / threads=6 / lookahead_threads=1 / sliced_threads=0 / nr=0 / decimate=0 / interlaced=0 / bluray_compat=0 / constrained_intra=0 / bframes=9 / b_pyramid=2 / b_adapt=2 / b_bias=0 / direct=3 / weightb=1 / open_gop=0 / weightp=2 / keyint=240 / keyint_min=23 / scenecut=40 / intra_refresh=0 / rc=2pass / mbtree=0 / bitrate=3200 / ratetol=1.0 / qcomp=0.60 / qpmin=0 / qpmax=69 / qpstep=4 / cplxblur=20.0 / qblur=0.5 / ip_ratio=1.40 / pb_ratio=1.30 / aq=1:1.00
Язык : English
Default : Да
Forced : Да

Аудио #1
Идентификатор : 2
Формат : AC-3
Формат/Информация : Audio Coding 3
Расширение режима : CM (complete main)
Параметр Endianness формата : Big
Идентификатор кодека : A_AC3
Продолжительность : 2 ч. 25 м.
Вид битрейта : Постоянный
Битрейт : 384 Кбит/сек
Каналы : 6 каналов
Расположение каналов : Front: L C R, Side: L R, LFE
Частота : 48,0 КГц
Битовая глубина : 16 бит
Метод сжатия : С потерями
Размер потока : 399 Мбайт (7%)
Заголовок : TRACK_01_DUB_RUS
Язык : Russian
Default : Да
Forced : Да

Аудио #2
Идентификатор : 3
Формат : AC-3
Формат/Информация : Audio Coding 3
Расширение режима : CM (complete main)
Параметр Endianness формата : Big
Идентификатор кодека : A_AC3
Продолжительность : 2 ч. 25 м.
Вид битрейта : Постоянный
Битрейт : 448 Кбит/сек
Каналы : 6 каналов
Расположение каналов : Front: L C R, Side: L R, LFE
Частота : 48,0 КГц
Битовая глубина : 16 бит
Метод сжатия : С потерями
Размер потока : 465 Мбайт (8%)
Заголовок : TRACK_02_MVO_RUS
Язык : Russian
Default : Нет
Forced : Нет

Аудио #3
Идентификатор : 4
Формат : AC-3
Формат/Информация : Audio Coding 3
Расширение режима : CM (complete main)
Параметр Endianness формата : Big
Идентификатор кодека : A_AC3
Продолжительность : 2 ч. 25 м.
Вид битрейта : Постоянный
Битрейт : 448 Кбит/сек
Каналы : 6 каналов
Расположение каналов : Front: L C R, Side: L R, LFE
Частота : 48,0 КГц
Битовая глубина : 16 бит
Метод сжатия : С потерями
Размер потока : 465 Мбайт (8%)
Заголовок : TRACK_03_AVO_RUS_Gavrilov
Язык : Russian
Default : Нет
Forced : Нет

Аудио #4
Идентификатор : 5
Формат : AC-3
Формат/Информация : Audio Coding 3
Расширение режима : CM (complete main)
Параметр Endianness формата : Big
Идентификатор кодека : A_AC3
Продолжительность : 2 ч. 25 м.
Вид битрейта : Постоянный
Битрейт : 448 Кбит/сек
Каналы : 6 каналов
Расположение каналов : Front: L C R, Side: L R, LFE
Частота : 48,0 КГц
Битовая глубина : 16 бит
Метод сжатия : С потерями
Размер потока : 465 Мбайт (8%)
Заголовок : TRACK_04_AVO_RUS_Rjabov
Язык : Russian
Default : Нет
Forced : Нет

Аудио #5
Идентификатор : 6
Формат : AC-3
Формат/Информация : Audio Coding 3
Расширение режима : CM (complete main)
Параметр Endianness формата : Big
Идентификатор кодека : A_AC3
Продолжительность : 2 ч. 25 м.
Вид битрейта : Постоянный
Битрейт : 448 Кбит/сек
Каналы : 6 каналов
Расположение каналов : Front: L C R, Side: L R, LFE
Частота : 48,0 КГц
Битовая глубина : 16 бит
Метод сжатия : С потерями
Размер потока : 465 Мбайт (8%)
Заголовок : TRACK_05_MVO_UKR_ICTV
Язык : Ukrainian
Default : Нет
Forced : Нет

Аудио #6
Идентификатор : 7
Формат : AC-3
Формат/Информация : Audio Coding 3
Расширение режима : CM (complete main)
Параметр Endianness формата : Big
Идентификатор кодека : A_AC3
Продолжительность : 2 ч. 25 м.
Вид битрейта : Постоянный
Битрейт : 448 Кбит/сек
Каналы : 6 каналов
Расположение каналов : Front: L C R, Side: L R, LFE
Частота : 48,0 КГц
Битовая глубина : 16 бит
Метод сжатия : С потерями
Размер потока : 465 Мбайт (8%)
Заголовок : TRACK_06_ORIGINAL_ENG
Язык : English
Default : Нет
Forced : Нет

Текст #1
Идентификатор : 8
Формат : UTF-8
Идентификатор кодека : S_TEXT/UTF8
Идентификатор кодека/Информация : UTF-8 Plain Text
Заголовок : TEXT_01_SUB_RUS.srt
Язык : Russian
Default : Нет
Forced : Нет

Текст #2
Идентификатор : 9
Формат : UTF-8
Идентификатор кодека : S_TEXT/UTF8
Идентификатор кодека/Информация : UTF-8 Plain Text
Заголовок : TEXT_02_SUB_UKR.srt
Язык : Ukrainian
Default : Нет
Forced : Нет

Текст #3
Идентификатор : 10
Формат : UTF-8
Идентификатор кодека : S_TEXT/UTF8
Идентификатор кодека/Информация : UTF-8 Plain Text
Заголовок : TEXT_03_SUB_ENG.srt
Язык : English
Default : Нет
Forced : Нет

Меню
00:00:00.000 : en:Red Ball/Main Title
00:06:47.073 : en:The Arrest of Howard Marks
00:14:49.889 : en:Clarity
00:21:13.021 : en:Pre-Determination
00:24:43.690 : en:Can You See?
00:29:46.034 : en:Ann Lively
00:37:09.518 : en:Case 1109
00:42:42.476 : en:Everybody Runs
00:51:41.973 : en:Auto Assembly Line
00:55:18.606 : en:History of the Precogs
00:59:57.385 : en:Minority Reports
01:05:10.907 : en:Eyeworks
01:09:41.927 : en:Public Pool
01:17:00.657 : en:The Spyders
01:22:21.561 : en:Agatha Is the Key
01:27:57.897 : en:Downloading Agatha
01:35:42.445 : en:Balloon Man
01:39:08.776 : en:Leo Crow
01:49:06.206 : en:An Echo
01:54:02.001 : en:So Much Love in This House
02:01:28.531 : en:All Thumbs
02:06:43.095 : en:A World Without Murder
02:13:11.817 : en:Forgive Me, John
02:15:40.632 : en:In Peace/End Credits


picpicpicpicpic
Для увеличения картинки щелкните мышкой по превью



Этот торрент недоступен для скачивания без регистрации, однако доступен по публичной magnet-ссылке (источники с публичных трекеров). Перед использованием ссылки прочтите, пожалуйста Пользовательское соглашение, а также как можно дольше оставайтесь на раздаче! Для того, чтобы скачать сам торрент-файл (который видит больше источников), а также для того, чтобы поблагодарить релизера, вам необходимо зарегистрироваться. Если регистрироваться лень - вы можете также попробовать скачать релиз по нашим партнерским ссылкам ниже.

[underverse.su].t49437.torrent
Трекер: Зарегистрирован   [ 07.02.2015 17:14 ]  

Статус: проверено (by Ведьмочка at 07.02.2015 17:14)
Поблагодарили: пока никто не поблагодарил...
Тип торрента: публичный - доступные источники с открытых трекеров: 
Размер: 5,91 GB (занимает 1,35 DVDR, для записи нужно 2 болванки DVDR/RW)
 
 
Похожие темы
Форум Тема Автор Торрент Отв. Посл. сооб.
Зарубежное кино [DVDRip, Low-Res HDRip, и т.д.] Особое мнение / Minority Report (Стивен Спилберг) [2002 г., фантастика, боевик, триллер, драма, детектив, DVDRip] Dmitriy
4 | 0

2 | 1169

13

13.05.2009 15:57

Зарубежное кино [DVDRip, Low-Res HDRip, и т.д.] Особое мнение / Minority Report (Стивен Спилберг) [2002 г., фантастика, боевик, триллер, детектив, BDRip-AVC] Dub + MVO + AVO (Гаврилов) + AVO (Рябов) + Original (Eng) + Subs (rus, eng) DarkAngel
24 | 13

1 | 789

24

27.11.2012 12:49

Зарубежное кино [DVDRip, Low-Res HDRip, и т.д.] Особое мнение / Minority report (Стивен Спилберг / Steven Spielberg) [2002 г., фантастика, боевик, триллер, HDRip] Dub 90ytr90
72 | 0

0 | 705

38

11.12.2014 15:18

Зарубежное кино [DVDRip, Low-Res HDRip, и т.д.] Особое мнение / Minority report (Стивен Спилберг / Steven Spielberg) [2002 г., фантастика, боевик, триллер, HDRip] Dub 90ytr90
13 | 1

1 | 642

18

08.03.2015 17:55

Зарубежные сериалы Особое мнение / Minority Report / Сезон 1 (1-10 серии из 10) (Грег Биман, Олатунде Осунсанми, Дэвид Стрейтон) [2015 г., фантастика, драма, HDTVRip] MVO (NewStudio) + Original older
10 | 6

7 | 1251

16

04.12.2015 07:09

Информационно-аналитические передачи Особое мнение (Радиокомпания" Эхо Москвы") [2011, телепередача, TVRip] матроскин
1 | 0

1 | 1333

1

27.04.2013 11:32

Информационно-аналитические передачи Особое мнение. Михаил Веллер [2012, телепередача, TVRip] матроскин
0 | 0

1 | 814

0

30.04.2013 14:22

Информационно-аналитические передачи Особое мнение. Альбац Е.М [2011,телепередача, TVRip] матроскин
0 | 0

1 | 702

0

03.05.2013 09:46

Зарубежное кино [HDDVDRip / BDRip / WEB-DL / HDTV 1080/720р] Особое мнение / Minority Report (Стивен Спилберг / Steven Spielberg) [2002 г., фантастика, боевик, триллер, детектив, BDRip 720p] [DUB, AVO] Kavasar
1 | 0

0 | 596

9

11.12.2014 03:47

Зарубежное кино [HDDVDRip / BDRip / WEB-DL / HDTV 1080/720р] Особое мнение / Minority Report (Стивен Спилберг) [2002 г., Фантастика, Боевик, Триллер, BDRip 1080p] Dub (RUS, Лицензия) + AVO (RUS, А. Гаврилов) + Original (ENG) + Subs (RUS, ENG, UKR) Ведьмочка
3 | 0

0 | 374

2

07.02.2015 16:48


Яндекс.Метрика powered by Sphinx


В Н И М А Н И Е
Сайт не распространяет и не хранит электронные версии произведений, а лишь бесплатно и без коммерческой выгоды (не требуя взамен платы,
SMS и т.д.) предоставляет доступ к создаваемому пользователями каталогу ссылок на торрент-файлы, которые содержат только списки хеш-сумм.
Убедительная просьба с жалобами обращаться напрямую к пользователю, разместившему торрент файл.

Вверх