Loading...
Error

Подозрение (1-4 серии из 4) (Арменак Назикян) [2015 г., Детектив, криминал, SatRip]

Статистика раздачи
Размер:  2,36 GB   |    Зарегистрирован:  1 год 9 месяцев   |    Скачан:  22 раза

Полного источника не было: 2 дня 22 часа

Сидов:  0  |  0 KB/s  ]   Личеров:  0  |  0 KB/s  ]

* - сиды/пиры с внешних источников

   
 
Автор Сообщение

nemos Пол:Муж

07-Фев-2015 16:38

Подозрение


Год выпуска: 2015
Жанр: Детектив, криминал
Страна: Россия
Режиссер: Арменак Назикян
В ролях: Владислав Резник, Евгений Воловенко, Наталья Круглова, Елена Карпова, Игорь Филиппов, Никита Морозов, Константин Фисенко, Виталий Кривонос, Сергей Малюгов, Исса Дауров
Сюжет фильма:
В Северной столице сотрудники ФСБ ведут разработку организованной преступной группы, возглавляет которую вор в законе по кличке Соха. Особый интерес у спецслужб вызывают данные о связях криминальной верхушки с представителями иностранной разведки. Неожиданно погибают все члены ОПГ, замеченные в контактах с зарубежными агентами. Проанализировав ситуацию, руководство ФСБ приходит к выводу, что кто-то, имевший доступ к секретным материалам, намеренно слил информацию. Подозрение падает на Юрия Иванова из отдела по борьбе с организованной преступностью. Его друга, майора ФСБ Павла Трофимова вызывают на ковер… Юрий и Павел дружили со школы, вместе поступали в Академию ФСБ. В предательство верного друга майор не верит. Ситуация накаляется, когда Трофимов понимает: ликвидация членов ОПГ не случайна, и, по всей видимости иностранная разведка осуществляет какую-то операцию на территории России. Чтобы узнать это наверняка и вывести «крота» на чистую воду, у Павла есть всего несколько дней. А что, если предателем на самом деле окажется его лучший друг?


Качество видео: SatRip

Продолжительность: 00:44:43 серия
Формат: AVI
Видео: XviD, 720x448, 1797 kbps
Аудио: русский, MP3 2.0, 128 kbps

Код:

E:\Фильмы-1\Podozrenie.SATRip\Podozrenie.4.SATRip.avi
   General
      Complete name : E:\Фильмы-1\Podozrenie.SATRip\Podozrenie.4.SATRip.avi
      Format : AVI
      Format/Info : Audio Video Interleave
      File size : 619 MiB
      Duration : 44mn 43s
      Overall bit rate : 1 935 Kbps
      Writing application : VirtualDubMod 1.5.10.3 | www.virtualdub-fr.org || (build 2550/release)
      Writing library : VirtualDub build 29808/release
   Video #0
      ID : 0
      Format : MPEG-4 Visual
      Format profile : Advanced Simple@L5
      Format settings, BVOP : 2
      Format settings, QPel : No
      Format settings, GMC : No warppoints
      Format settings, Matrix : Default (MPEG)
      Codec ID : XVID
      Codec ID/Hint : XviD
      Duration : 44mn 43s
      Bit rate : 1 797 Kbps
      Width : 720 pixels
      Height : 448 pixels
      Display aspect ratio : 1.607
      Frame rate : 25.000 fps
      Color space : YUV
      Chroma subsampling : 4:2:0
      Bit depth : 8 bits
      Scan type : Progressive
      Compression mode : Lossy
      Bits/(Pixel*Frame) : 0.223
      Stream size : 575 MiB (93%)
      Writing library : XviD 1.2.1 (UTC 2008-12-04)
   Audio #1
      ID : 1
      Format : MPEG Audio
      Format version : Version 1
      Format profile : Layer 3
      Codec ID : 55
      Codec ID/Hint : MP3
      Duration : 44mn 43s
      Bit rate mode : Constant
      Bit rate : 128 Kbps
      Channel(s) : 2 channels
      Sampling rate : 48.0 KHz
      Compression mode : Lossy
      Stream size : 40.9 MiB (7%)
      Alignment : Aligned on interleaves
      Interleave, duration : 40 ms (1.00 video frame)
      Interleave, preload duration : 504 ms
      Writing library : LAME3.99r
      Encoding settings : -m s -V 4 -q 1 -lowpass 17 -b 128
picpicpicpicpicpicpicpicpic
Для увеличения картинки щелкните мышкой по превью

Этот торрент недоступен для скачивания без регистрации, однако доступен по публичной magnet-ссылке (источники с публичных трекеров). Перед использованием ссылки прочтите, пожалуйста Пользовательское соглашение, а также как можно дольше оставайтесь на раздаче! Для того, чтобы скачать сам торрент-файл (который видит больше источников), а также для того, чтобы поблагодарить релизера, вам необходимо зарегистрироваться. Если регистрироваться лень - вы можете также попробовать скачать релиз по нашим партнерским ссылкам ниже.

[underverse.su].t49428.torrent
Трекер: Зарегистрирован   [ 07.02.2015 16:38 ]  

Статус: проверено (by nemos at 07.02.2015 16:39)
Поблагодарили: пока никто не поблагодарил...
Тип торрента: публичный - доступные источники с открытых трекеров: 
Размер: 2,36 GB (занимает 0,54 DVDR, для записи нужно 1 болванка DVDR/RW)
 
 

Яндекс.Метрика powered by Sphinx


В Н И М А Н И Е
Сайт не распространяет и не хранит электронные версии произведений, а лишь бесплатно и без коммерческой выгоды (не требуя взамен платы,
SMS и т.д.) предоставляет доступ к создаваемому пользователями каталогу ссылок на торрент-файлы, которые содержат только списки хеш-сумм.
Убедительная просьба с жалобами обращаться напрямую к пользователю, разместившему торрент файл.

Вверх