Loading...
Error

(Шансон) Аркадий Северный - Херсонский концерт (2003~2008) [FLAC (Image+.CUE), Lossless]

Статистика раздачи
Размер:  783 MB   |    Зарегистрирован:  3 года 4 месяца   |    Скачан:  13 раз

Полного источника не было: 19 часов

Сидов:  0  |  0 KB/s  ]   Личеров:  0  |  0 KB/s  ]

* - сиды/пиры с внешних источников

   
 
Автор Сообщение

Бишеп Пол:Муж

04-Фев-2015 07:59

Аркадий Северный - Херсонский концерт

Жанр: Шансон
Год выпуска: 2003~2008
Источник: CD
Производитель диска: Dream Sound Studio
Аудиокодек: FLAC
Тип рипа: Image+.CUE
Битрейт аудио: lossless
Продолжительность: 02:17:18

Треклист:
01. Приветствие
02. Жил в Одессе паренёк
03. Семь сорок
04. Свадьба в доме Соломона
05. Одесский телефон
06. Купите папиросы
07. Гром прогремел
08. Жил я в шумном городе
09. Дамы,господа
10. На плинтуаре
11. Алёша
12. Грустное танго
13. Сашка

Exact Audio Copy V0.99 prebeta 5 from 4. May 2009

Отчёт EAC об извлечении, выполненном 25. июля 2011, 20:50

Аркадий Северный / Херсонкий концерт (CD 1)

Дисковод: ASUS DRW-2014S1 Adapter: 0 ID: 1

Режим чтения : Достоверность
Использование точного потока : Да
Отключение кэша аудио : Да
Использование указателей C2 : Нет

Коррекция смещения при чтении : 6
Способность читать области Lead-in и Lead-out : Нет
Заполнение пропущенных сэмплов тишиной : Да
Удаление блоков с тишиной в начале и конце : Нет
При вычислениях CRC использовались нулевые сэмплы : Да
Интерфейс : Встроенный Win32-интерфейс для Win NT/2000

Выходной формат : Внутренние WAV-операции
Формат сэмплов : 44.100 Гц; 16 бит; стерео

TOC извлечённого CD

Трек | Старт | Длительность | Начальный сектор | Конечный сектор
---------------------------------------------------------------------
1 | 0:00.00 | 1:09.40 | 0 | 5214
2 | 1:09.40 | 4:47.53 | 5215 | 26792
3 | 5:57.18 | 4:46.50 | 26793 | 48292
4 | 10:43.68 | 5:02.09 | 48293 | 70951
5 | 15:46.02 | 4:50.07 | 70952 | 92708
6 | 20:36.09 | 7:13.31 | 92709 | 125214
7 | 27:49.40 | 2:52.71 | 125215 | 138185
8 | 30:42.36 | 4:28.15 | 138186 | 158300
9 | 35:10.51 | 6:14.41 | 158301 | 186391
10 | 41:25.17 | 2:41.45 | 186392 | 198511
11 | 44:06.62 | 6:15.63 | 198512 | 226699
12 | 50:22.50 | 6:26.52 | 226700 | 255701
13 | 56:49.27 | 5:16.13 | 255702 | 279414
14 | 62:05.40 | 6:26.52 | 279415 | 308416
15 | 68:32.17 | 6:15.07 | 308417 | 336548

Характеристики диапазона извлечения и сообщения об ошибках

Выбранный диапазон

Имя файла E:\Новая папка\cd 1\Аркадий Северный - Херсонкий концерт (CD 1).wav

Пиковый уровень 100.0 %
Качество диапазона 100.0 %
CRC копии E7744E12
Копирование... OK

Ошибок не произошло

AccurateRip: сводка
Трек 1 нет в базе данных
Трек 2 нет в базе данных
Трек 3 нет в базе данных
Трек 4 нет в базе данных
Трек 5 нет в базе данных
Трек 6 нет в базе данных
Трек 7 нет в базе данных
Трек 8 нет в базе данных
Трек 9 нет в базе данных
Трек 10 нет в базе данных
Трек 11 нет в базе данных
Трек 12 нет в базе данных
Трек 13 нет в базе данных
Трек 14 нет в базе данных
Трек 15 нет в базе данных
Ни одного трека нет в базе AccurateRip

Конец отчёта

REM ACCURATERIPID 00257f07-01b4a7b1-cb11870f
REM DATE 1979
REM DISCID CB11870F
REM COMMENT "ExactAudioCopy v0.99pb5"
PERFORMER "Аркадий Северный"
TITLE "Херсонкий концерт (CD 1)"
FILE "Аркадий Северный - Херсонкий концерт (CD 1).flac" WAVE
TRACK 01 AUDIO
TITLE "Приветствие"
PERFORMER "Аркадий Северный"
FLAGS DCP
INDEX 01 00:00:00
TRACK 02 AUDIO
TITLE "Жил в Одессе паренек"
PERFORMER "Аркадий Северный"
FLAGS DCP
INDEX 00 01:07:40
INDEX 01 01:09:40
TRACK 03 AUDIO
TITLE "Семь сорок"
PERFORMER "Аркадий Северный"
FLAGS DCP
INDEX 00 05:55:18
INDEX 01 05:57:18
TRACK 04 AUDIO
TITLE "Свадьба в доме Соломона"
PERFORMER "Аркадий Северный"
FLAGS DCP
INDEX 00 10:41:68
INDEX 01 10:43:68
TRACK 05 AUDIO
TITLE "Одесский телефон"
PERFORMER "Аркадий Северный"
FLAGS DCP
INDEX 00 15:44:02
INDEX 01 15:46:02
TRACK 06 AUDIO
TITLE "Купите папиросы"
PERFORMER "Аркадий Северный"
FLAGS DCP
INDEX 00 20:34:09
INDEX 01 20:36:09
TRACK 07 AUDIO
TITLE "Гром прогремел"
PERFORMER "Аркадий Северный"
FLAGS DCP
INDEX 00 27:47:40
INDEX 01 27:49:40
TRACK 08 AUDIO
TITLE "Жил я в шумном городе"
PERFORMER "Аркадий Северный"
FLAGS DCP
INDEX 00 30:40:36
INDEX 01 30:42:36
TRACK 09 AUDIO
TITLE "Дамы,господа"
PERFORMER "Аркадий Северный"
FLAGS DCP
INDEX 00 35:08:51
INDEX 01 35:10:51
TRACK 10 AUDIO
TITLE "На плинтуаре"
PERFORMER "Аркадий Северный"
FLAGS DCP
INDEX 00 41:23:17
INDEX 01 41:25:17
TRACK 11 AUDIO
TITLE "Алеша"
PERFORMER "Аркадий Северный"
FLAGS DCP
INDEX 00 44:04:62
INDEX 01 44:06:62
TRACK 12 AUDIO
TITLE "Грустное танго"
PERFORMER "Аркадий Северный"
FLAGS DCP
INDEX 00 50:20:50
INDEX 01 50:22:50
TRACK 13 AUDIO
TITLE "Сашка"
PERFORMER "Аркадий Северный"
FLAGS DCP
INDEX 00 56:47:27
INDEX 01 56:49:27
TRACK 14 AUDIO
TITLE "Грустное танго"
PERFORMER "Аркадий Северный"
FLAGS DCP
INDEX 00 62:03:40
INDEX 01 62:05:40
TRACK 15 AUDIO
TITLE "Алеша"
PERFORMER "Аркадий Северный"
FLAGS DCP
INDEX 00 68:30:17
INDEX 01 68:32:17

Треклист:
01. Два громилы
02. Гоп со смыком
03. Алёша жарил на баяне
04. Шел трамвай 10-й номер
05. Канаю я
06. Раз канаю я на бан
07. В Одессе я родился
08. Попурри
09. Одесса-мама,Ростов-папа
10. Здравствуйте
11. С Одесского кичмана
12. Свадьба в доме Зуя

Exact Audio Copy V0.99 prebeta 5 from 4. May 2009

Отчёт EAC об извлечении, выполненном 25. июля 2011, 20:22

Аркадий Северный / Херсонкий концерт (CD 2)

Дисковод: ASUS DRW-2014S1 Adapter: 0 ID: 1

Режим чтения : Достоверность
Использование точного потока : Да
Отключение кэша аудио : Да
Использование указателей C2 : Нет

Коррекция смещения при чтении : 6
Способность читать области Lead-in и Lead-out : Нет
Заполнение пропущенных сэмплов тишиной : Да
Удаление блоков с тишиной в начале и конце : Нет
При вычислениях CRC использовались нулевые сэмплы : Да
Интерфейс : Встроенный Win32-интерфейс для Win NT/2000

Выходной формат : Внутренние WAV-операции
Формат сэмплов : 44.100 Гц; 16 бит; стерео

TOC извлечённого CD

Трек | Старт | Длительность | Начальный сектор | Конечный сектор
---------------------------------------------------------------------
1 | 0:00.00 | 6:03.65 | 0 | 27289
2 | 6:03.65 | 4:18.24 | 27290 | 46663
3 | 10:22.14 | 2:45.07 | 46664 | 59045
4 | 13:07.21 | 6:01.67 | 59046 | 86187
5 | 19:09.13 | 4:53.40 | 86188 | 108202
6 | 24:02.53 | 3:36.38 | 108203 | 124440
7 | 27:39.16 | 2:11.04 | 124441 | 134269
8 | 29:50.20 | 8:27.25 | 134270 | 172319
9 | 38:17.45 | 5:41.43 | 172320 | 197937
10 | 43:59.13 | 7:23.14 | 197938 | 231176
11 | 51:22.27 | 5:54.31 | 231177 | 257757
12 | 57:16.58 | 5:04.56 | 257758 | 280613

Характеристики диапазона извлечения и сообщения об ошибках

Выбранный диапазон

Имя файла E:\Новая папка\cd 2\Аркадий Северный - Херсонкий концерт (CD 2).wav

Пиковый уровень 100.0 %
Качество диапазона 100.0 %
CRC копии B0D6CF5D
Копирование... OK

Ошибок не произошло

AccurateRip: сводка
Трек 1 нет в базе данных
Трек 2 нет в базе данных
Трек 3 нет в базе данных
Трек 4 нет в базе данных
Трек 5 нет в базе данных
Трек 6 нет в базе данных
Трек 7 нет в базе данных
Трек 8 нет в базе данных
Трек 9 нет в базе данных
Трек 10 нет в базе данных
Трек 11 нет в базе данных
Трек 12 нет в базе данных
Ни одного трека нет в базе AccurateRip

Конец отчёта

REM ACCURATERIPID 001a55d5-00f8446f-ae0e9d0c
REM DATE 1979
REM DISCID AE0E9D0C
REM COMMENT "ExactAudioCopy v0.99pb5"
PERFORMER "Аркадий Северный"
TITLE "Херсонкий концерт (CD 2)"
FILE "Аркадий Северный - Херсонкий концерт (CD 2).flac" WAVE
TRACK 01 AUDIO
TITLE "Два громилы"
PERFORMER "Аркадий Северный"
FLAGS DCP
INDEX 01 00:00:00
TRACK 02 AUDIO
TITLE "Гоп со смыком"
PERFORMER "Аркадий Северный"
FLAGS DCP
INDEX 00 06:01:65
INDEX 01 06:03:65
TRACK 03 AUDIO
TITLE "Алешка жарил на баяне"
PERFORMER "Аркадий Северный"
FLAGS DCP
INDEX 00 10:20:14
INDEX 01 10:22:14
TRACK 04 AUDIO
TITLE "Шел трамвай 10 номер"
PERFORMER "Аркадий Северный"
FLAGS DCP
INDEX 00 13:05:21
INDEX 01 13:07:21
TRACK 05 AUDIO
TITLE "Канаю я"
PERFORMER "Аркадий Северный"
FLAGS DCP
INDEX 00 19:07:13
INDEX 01 19:09:13
TRACK 06 AUDIO
TITLE "Раз канаю я на бан"
PERFORMER "Аркадий Северный"
FLAGS DCP
INDEX 00 24:00:53
INDEX 01 24:02:53
TRACK 07 AUDIO
TITLE "В Одессе я родился"
PERFORMER "Аркадий Северный"
FLAGS DCP
INDEX 00 27:37:16
INDEX 01 27:39:16
TRACK 08 AUDIO
TITLE "Попурри"
PERFORMER "Аркадий Северный"
FLAGS DCP
INDEX 00 29:48:20
INDEX 01 29:50:20
TRACK 09 AUDIO
TITLE "Одесса-мама,Ростов-папа"
PERFORMER "Аркадий Северный"
FLAGS DCP
INDEX 00 38:15:45
INDEX 01 38:17:45
TRACK 10 AUDIO
TITLE "Здравствуйте"
PERFORMER "Аркадий Северный"
FLAGS DCP
INDEX 00 43:57:13
INDEX 01 43:59:13
TRACK 11 AUDIO
TITLE "С одесского кичмана"
PERFORMER "Аркадий Северный"
FLAGS DCP
INDEX 00 51:20:27
INDEX 01 51:22:27
TRACK 12 AUDIO
TITLE "Свадьба в доме Зуя"
PERFORMER "Аркадий Северный"
FLAGS DCP
INDEX 00 57:14:58
INDEX 01 57:16:58

Этот торрент недоступен для скачивания без регистрации, однако доступен по публичной magnet-ссылке (источники с публичных трекеров). Перед использованием ссылки прочтите, пожалуйста Пользовательское соглашение, а также как можно дольше оставайтесь на раздаче! Для того, чтобы скачать сам торрент-файл (который видит больше источников), а также для того, чтобы поблагодарить релизера, вам необходимо зарегистрироваться. Если регистрироваться лень - вы можете также попробовать скачать релиз по нашим партнерским ссылкам ниже. Кроме того, зарегистрированным пользователям не показывается всплывающая реклама при скачивании.

[underverse.su].t49253.torrent
Трекер: Зарегистрирован   [ 04.02.2015 07:59 ]  

Статус: проверено (by Бишеп at 04.02.2015 07:59)
Поблагодарили: 3 человека
Тип торрента: публичный - доступные источники с открытых трекеров: 
Размер: 783 MB (занимает 0,17 DVDR, для записи нужно 1 болванка DVDR/RW)
 
 
Похожие темы
Форум Тема Автор Торрент Отв. Посл. сооб.
Шансон (Шансон) Андрей Климнюк - От Афгана до Чечни - 1999, MP3, 320 kbps Bugor
1 | 0

0 | 2440

7

11.09.2012 15:17

Шансон (Шансон) Аркадий Неверный - "Памяти С.А.Есенина" - 2006, MP3, 320 kbps Bugor
1 | 0

0 | 1432

22

11.09.2012 17:40

Шансон (Шансон) Александр Дюмин - Старый паровоз (2013) [MP3, 320 kbps CBR] terra07
1 | 0

0 | 2484

32

04.09.2013 18:57

Шансон (Шансон) Аркадий Кобяков - Лучшие песни (2013) [MP3, 320 kbps CBR] Rodger23
6 | 0

0 | 2088

19

23.05.2014 04:33

Шансон (Lossless) (Шансон) Антология Русского Шансона: Владимир Асмолов - Звёздная серия (2002) [FLAC (Image+.CUE), Lossless] Бишеп
1 | 0

0 | 1541

19

31.07.2012 13:20

Шансон (Lossless) (Шансон) Анатолий Полотно - Анатолий Полотно и группа Лоц-Мэн (1995) [FLAC (Image+.CUE), Lossless] Бишеп
1 | 0

0 | 1300

10

28.09.2012 09:44

Шансон (Lossless) (Шансон) Анатолий Полотно и Федя Карманов - Поцелуй меня, удача! (2007) [FLAC (Image+.CUE), Lossless] Бишеп
1 | 0

1 | 2108

4

10.10.2012 10:09

Шансон (Lossless) (Шансон) Анатолий Полотно - В мелодиях и красках 2 CD (1995) [FLAC (Image+.CUE), Lossless] Бишеп
1 | 0

0 | 1211

9

09.10.2012 18:39

Шансон (Lossless) (Шансон) Анатолий Полотно - На севере (2005) [FLAC (Image+.CUE), Lossless] Бишеп
1 | 0

0 | 1634

16

01.11.2012 08:58

Шансон (Lossless) (Шансон) Анатолий Полотно - Против ветра (2008) [FLAC (Image+.CUE), Lossless] Бишеп
1 | 0

0 | 1106

1

20.11.2012 09:42


Яндекс.Метрика powered by Sphinx


В Н И М А Н И Е
Сайт не распространяет и не хранит электронные версии произведений, а лишь бесплатно и без коммерческой выгоды (не требуя взамен платы,
SMS и т.д.) предоставляет доступ к создаваемому пользователями каталогу ссылок на торрент-файлы, которые содержат только списки хеш-сумм.
Убедительная просьба с жалобами обращаться напрямую к пользователю, разместившему торрент файл.

Вверх