Loading...
Error

Наследие В.И. Ленина [2014 г., документальный, HDTVRip]

Статистика раздачи
Размер:  192 MB   |    Зарегистрирован:  1 год 10 месяцев   |    Скачан:  5 раз
Сидов:  1  |  0 KB/s  ]   Личеров:  0  |  0 KB/s  ]

* - сиды/пиры с внешних источников

   
 
Автор Сообщение

матроскин Пол:Муж

01-Фев-2015 13:27

Наследие В.И. Ленина


Год выпуска: 2014
Жанр: документальный
Страна: Россия
Выпущено: Красное Тв
Сюжет фильма:
В день 91-й годовщины со дня кончины вождя Великого Октября ЦК и МГК КПРФ организовали возложение к Мавзолею В.И. Ленина. В церемонии приняли участие руководители КПРФ, депутаты Государственной Думы, региональных парламентов, коммунисты Московского городского и Московского областного отделений, представители общественных организаций. В.И.Ленин основатель нашего Советского государства который всю свою жизнь боролся за права трудящихся.
Качество видео: HDTVRip

Продолжительность: 00:07:59
Формат: avi
Видео: DivX 4, 854x480, 3087 kbps
Аудио: русский, оригинал, MP3 2.0, 256 kbps

Код:

General
Complete name                    : C:\Users\Ohrana\Desktop\Наследие  В.И.Ленина.avi
Format                           : AVI
Format/Info                      : Audio Video Interleave
File size                        : 192 MiB
Duration                         : 7mn 59s
Overall bit rate                 : 3 356 Kbps
Writing application              : Lavf52.93.0

Video
ID                               : 0
Format                           : MPEG-4 Visual
Format profile                   : Simple@L1
Format settings, BVOP            : No
Format settings, QPel            : No
Format settings, GMC             : No warppoints
Format settings, Matrix          : Default (H.263)
Codec ID                         : DIVX
Codec ID/Info                    : Project Mayo
Codec ID/Hint                    : DivX 4
Duration                         : 7mn 59s
Bit rate                         : 3 087 Kbps
Width                            : 854 pixels
Height                           : 480 pixels
Display aspect ratio             : 16/9
Frame rate                       : 25.000 fps
Resolution                       : 24 bits
Colorimetry                      : 4:2:0
Scan type                        : Progressive
Bits/(Pixel*Frame)               : 0.301
Stream size                      : 177 MiB (92%)
Writing library                  : Lavc52.108.0

Audio
ID                               : 1
Format                           : MPEG Audio
Format version                   : Version 1
Format profile                   : Layer 3
Codec ID                         : 55
Codec ID/Hint                    : MP3
Duration                         : 7mn 59s
Bit rate mode                    : Constant
Bit rate                         : 256 Kbps
Channel(s)                       : 2 channels
Sampling rate                    : 44.1 KHz
Resolution                       : 16 bits
Stream size                      : 14.6 MiB (8%)
Alignment                        : Aligned on interleaves
Interleave, duration             : 26 ms (0.65 video frame)
Interleave, preload duration     : 52 ms
Writing library                  : LAME3.98.4

picpicpicpicpicpic
Для увеличения картинки щелкните мышкой по превью

Этот торрент недоступен для скачивания без регистрации, однако доступен по публичной magnet-ссылке (источники с публичных трекеров). Перед использованием ссылки прочтите, пожалуйста Пользовательское соглашение, а также как можно дольше оставайтесь на раздаче! Для того, чтобы скачать сам торрент-файл (который видит больше источников), а также для того, чтобы поблагодарить релизера, вам необходимо зарегистрироваться. Если регистрироваться лень - вы можете также попробовать скачать релиз по нашим партнерским ссылкам ниже.

[underverse.su].t49061.torrent
Трекер: Зарегистрирован   [ 01.02.2015 13:27 ]  

Статус: проверено (by матроскин at 01.02.2015 13:28)
Поблагодарили: 1 человек
Тип торрента: публичный - доступные источники с открытых трекеров: 
Размер: 192 MB (занимает 0,04 DVDR, для записи нужно 1 болванка DVDR/RW)
 
 
Похожие темы
Форум Тема Автор Торрент Отв. Посл. сооб.
T Зарубежное кино [DVDRip, Low-Res HDRip, и т.д.] Наследие Викингов / Viking Legacy (Том Баркер) [2016 г., боевик, приключения, HDRip] MVO makkol
765 | 52

0 | 186

29

13.10.2016 22:02

T Зарубежное кино [HDDVDRip / BDRip / WEB-DL / HDTV 1080/720р] Наследие викингов / Viking Legacy (Том Баркер / Tom Barker, Виктор Мауер / Victor Mawer) [2016 г., боевик, приключения, BDRip 720p] MVO (Синема УС) 90ytr90
167 | 3

0 | 225

5

14.10.2016 18:49

T Зарубежное кино [HDDVDRip / BDRip / WEB-DL / HDTV 1080/720р] Наследие Викингов / Viking Legacy (Том Баркер) [2016 г., боевик, приключения, BDRip 1080p] MVO makkol
3 | 5

0 | 189

16

13.10.2016 22:09

Релизы Наследие ведьм 3: Охотник и добыча / Witches Legacy 3: Hunter and the Hunted Collector's Edition [2015 г., Квест, Поиск Предметов] RUS [P] Станислав Карбанович
24 | 0

0 | 745

21

05.08.2015 14:32

матроскин Пол:Муж

01-Фев-2015 13:30

.




добавлено спустя 27 секунд:


Яндекс.Метрика powered by Sphinx


В Н И М А Н И Е
Сайт не распространяет и не хранит электронные версии произведений, а лишь бесплатно и без коммерческой выгоды (не требуя взамен платы,
SMS и т.д.) предоставляет доступ к создаваемому пользователями каталогу ссылок на торрент-файлы, которые содержат только списки хеш-сумм.
Убедительная просьба с жалобами обращаться напрямую к пользователю, разместившему торрент файл.

Вверх