Loading...
Error

Хороший год / A Good Year (Ридли Скотт) [2006 г., Драма, Мелодрама, Комедия, BDRip-AVC] Dub (RUS, Лицензия) + Subs (RUS, ENG)

Статистика раздачи
Размер:  2,17 GB   |    Зарегистрирован:  1 год 10 месяцев   |    Скачан:  7 раз

Полного источника не было: 6 месяцев

Сидов:  0  |  0 KB/s  ]   Личеров:  0  |  0 KB/s  ]

* - сиды/пиры с внешних источников

   
 
Автор Сообщение

Ведьмочка Пол:Жен

31-Янв-2015 21:21

Хороший год / A Good Year
«Начни жизнь заново»


Страна: США , Великобритания
Год выпуска: 2006
Жанр: Драма, Мелодрама, Комедия
Продолжительность: 01:57:32
Режиссёр: Ридли Скотт
В ролях: Рассел Кроу, Марион Котийяр, Альберт Финни, Фредди Хаймор, Том Холландер, Рейф Сполл, Арчи Панджаби, Ричард Койл, Эбби Корниш, Бен Райтон
Сюжет фильма:
Воротила Лондонской фондовой биржи, безумно умный, удачливый менеджер и по совместительству большой зануда наследует винодельню в Провансе. По прибытии во Францию он обнаруживает, что, кроме него, есть еще люди, претендующие на его законную собственность. Цепочка невероятных событий и открытий заставят его по-новому взглянуть на истинные ценности этого мира…

Озвучивание:
  • Дублированный, Русский [Лицензия]

Качество видео: BDRip-AVC
Формат: MKV

Видео: AVC, 1024x436 (2.35:1), 23.976 fps, ~2139 Кбит/сек
Аудио: AC-3, 448 Кбит/сек, 6 Каналов, 48.0 КГц

Субтитры #1: UTF-8 [Русские, Форсированные]
Субтитры #2: UTF-8 [Русские, Полные]
Субтитры #2: UTF-8 [Английские, Полные]

Rip by:



Общее
Уникальный идентификатор : 162311578505175816388543440103279900832 (0x7A1C12ABF5882BFD4465F9A5914338A0)
Полное имя : \A Good Year.2006.BDRip.x264-LEONARDO_[scarabey.org].mkv
Формат : Matroska
Версия формата : Version 2
Размер файла : 2,17 Гбайт
Продолжительность : 1 ч. 57 м.
Общий поток : 2639 Кбит/сек
Название фильма : -=LEONARDO=-
Дата кодирования : UTC 2015-01-31 16:30:48
Программа кодирования : mkvmerge v5.0.1 ('Es ist Sommer') built on Oct 23 2011 00:46:40
Библиотека кодирования : libebml v1.2.2 + libmatroska v1.3.0
Attachements : cover.jpg

Видео
Идентификатор : 1
Формат : AVC
Формат/Информация : Advanced Video Codec
Профиль формата : High@L4.1
Параметр CABAC формата : Да
Параметр ReFrames формата : 8 кадров
Идентификатор кодека : V_MPEG4/ISO/AVC
Продолжительность : 1 ч. 57 м.
Битрейт : 2139 Кбит/сек
Ширина : 1024 пикселя
Высота : 436 пикселей
Соотношение сторон : 2,35:1
Режим частоты кадров : Постоянный
Частота кадров : 23,976 кадра/сек
Цветовое пространство : YUV
Субдискретизация насыщенности : 4:2:0
Битовая глубина : 8 бит
Тип развёртки : Прогрессивная
Бит/(Пиксели*Кадры) : 0.200
Размер потока : 1,76 Гбайт (81%)
Библиотека кодирования : x264 core 144 r2525 40bb568
Настройки программы : cabac=1 / ref=8 / deblock=1:-3:-3 / analyse=0x3:0x133 / me=umh / subme=11 / psy=1 / psy_rd=1.00:0.00 / mixed_ref=1 / me_range=24 / chroma_me=1 / trellis=2 / 8x8dct=1 / cqm=0 / deadzone=21,11 / fast_pskip=0 / chroma_qp_offset=-2 / threads=12 / lookahead_threads=2 / sliced_threads=0 / nr=0 / decimate=1 / interlaced=0 / bluray_compat=0 / constrained_intra=0 / bframes=8 / b_pyramid=2 / b_adapt=2 / b_bias=0 / direct=1 / weightb=1 / open_gop=0 / weightp=2 / keyint=250 / keyint_min=23 / scenecut=40 / intra_refresh=0 / rc=crf / mbtree=0 / crf=18.0 / qcomp=0.60 / qpmin=0 / qpmax=69 / qpstep=4 / ip_ratio=1.40 / pb_ratio=1.30 / aq=1:1.00
Default : Да
Forced : Нет

Аудио
Идентификатор : 2
Формат : AC-3
Формат/Информация : Audio Coding 3
Расширение режима : CM (complete main)
Параметр Endianness формата : Big
Идентификатор кодека : A_AC3
Продолжительность : 1 ч. 57 м.
Вид битрейта : Постоянный
Битрейт : 448 Кбит/сек
Каналы : 6 каналов
Расположение каналов : Front: L C R, Side: L R, LFE
Частота : 48,0 КГц
Битовая глубина : 16 бит
Метод сжатия : С потерями
Размер потока : 377 Мбайт (17%)
Язык : Russian
Default : Да
Forced : Да

Текст #1
Идентификатор : 3
Формат : UTF-8
Идентификатор кодека : S_TEXT/UTF8
Идентификатор кодека/Информация : UTF-8 Plain Text
Заголовок : Forced
Язык : Russian
Default : Да
Forced : Да

Текст #2
Идентификатор : 4
Формат : UTF-8
Идентификатор кодека : S_TEXT/UTF8
Идентификатор кодека/Информация : UTF-8 Plain Text
Язык : Russian
Default : Нет
Forced : Нет

Текст #3
Идентификатор : 5
Формат : UTF-8
Идентификатор кодека : S_TEXT/UTF8
Идентификатор кодека/Информация : UTF-8 Plain Text
Язык : English
Default : Нет
Forced : Нет

Меню
00:00:00.000 : en:Main Titles/A Few Vintages Ago
00:04:26.349 : en:Timing
00:07:51.179 : en:Toast of the Town
00:13:02.448 : en:France and a Little Car
00:16:14.264 : en:Uncle Henry's Estate
00:23:19.064 : en:Meeting with the Notaire
00:28:07.310 : en:Stuck in the Pool
00:35:28.543 : en:A Forced Holiday
00:39:23.444 : en:72 Hours
00:43:26.895 : en:Christie Roberts
00:48:38.915 : en:Enjoying Himself
00:52:35.026 : en:Memories
00:56:42.357 : en:Fanny Chenal
01:01:45.201 : en:Henry's Spirit
01:05:56.744 : en:Dinner with the Duflots
01:14:02.145 : en:Testing the Vines
01:20:08.386 : en:Charlie Arrives
01:25:28.957 : en:Two Untrusting Souls
01:31:11.090 : en:To Sell or Not to Sell
01:35:20.130 : en:Saying Goodbye
01:37:06.236 : en:A Fabricated Truth
01:38:53.093 : en:The Offer
01:44:08.784 : en:Choosing Love
01:51:28.348 : en:End Titles


picpicpicpicpic
Для увеличения картинки щелкните мышкой по превью



Этот торрент недоступен для скачивания без регистрации, однако доступен по публичной magnet-ссылке (источники с публичных трекеров). Перед использованием ссылки прочтите, пожалуйста Пользовательское соглашение, а также как можно дольше оставайтесь на раздаче! Для того, чтобы скачать сам торрент-файл (который видит больше источников), а также для того, чтобы поблагодарить релизера, вам необходимо зарегистрироваться. Если регистрироваться лень - вы можете также попробовать скачать релиз по нашим партнерским ссылкам ниже.

[underverse.su].t48904.torrent
Трекер: Зарегистрирован   [ 31.01.2015 21:21 ]  

Статус: проверено (by Ведьмочка at 31.01.2015 21:21)
Поблагодарили: пока никто не поблагодарил...
Тип торрента: публичный - доступные источники с открытых трекеров: 
Размер: 2,17 GB (занимает 0,49 DVDR, для записи нужно 1 болванка DVDR/RW)
 
 
Похожие темы
Форум Тема Автор Торрент Отв. Посл. сооб.
Зарубежное кино [DVDRip, Low-Res HDRip, и т.д.] Хороший год / A Good Year (Ридли Скотт) [2006 г., драма, мелодрама, комедия, HDRip-AVC] Dub + Original (Eng) + Subs (Rus, Eng) Garnett
11 | 1

0 | 1485

22

17.12.2012 12:40

Зарубежное кино [DVDRip, Low-Res HDRip, и т.д.] Хороший год / A Good Year (Ридли Скотт / Ridley Scott) [2006 г., драма, мелодрама, комедия, BDRip] Dub + Original (Eng) 90ytr90
7 | 0

0 | 260

5

03.02.2015 18:23

Зарубежное кино [DVDRip, Low-Res HDRip, и т.д.] Хороший год / A Good Year (Ридли Скотт / Ridley Scott) [2006, Драма, мелодрама, комедия, HDRip] Dub + Original (Eng) + Sub (Rus, Eng) 90ytr90
17 | 5

0 | 281

13

03.02.2015 18:41

Зарубежное кино [HDDVDRip / BDRip / WEB-DL / HDTV 1080/720р] Хороший год / A Good Year (Ридли Скотт / Ridley Scott) [2006, Драма, мелодрама, комедия, BDRip 720p] Dub + Original (Eng) + Sub (Rus, Eng) 90ytr90
25 | 1

0 | 262

3

03.02.2015 19:00

Зарубежное кино [HDDVDRip / BDRip / WEB-DL / HDTV 1080/720р] Хороший год / A Good Year (Ридли Скотт / Ridley Scott) [2006, Драма, мелодрама, комедия, BDRip 1080p] Dub + Original (Eng) + Sub (Rus, Eng) 90ytr90
2 | 0

1 | 257

5

12.02.2015 09:58


Яндекс.Метрика powered by Sphinx


В Н И М А Н И Е
Сайт не распространяет и не хранит электронные версии произведений, а лишь бесплатно и без коммерческой выгоды (не требуя взамен платы,
SMS и т.д.) предоставляет доступ к создаваемому пользователями каталогу ссылок на торрент-файлы, которые содержат только списки хеш-сумм.
Убедительная просьба с жалобами обращаться напрямую к пользователю, разместившему торрент файл.

Вверх