Loading...
Error

Кольт 45 / Colt 45 (Фабрис Дю Вельц) [2014 г., Боевик, Триллер, Драма, BDRip-AVC] MVO (RUS, Paradox) + Original (ENG) + Subs (FRA)

Статистика раздачи
Размер:  2,18 GB   |    Зарегистрирован:  1 год 10 месяцев   |    Скачан:  8 раз

Полного источника не было: 6 месяцев

Сидов:  0  |  0 KB/s  ]   Личеров:  0  |  0 KB/s  ]

* - сиды/пиры с внешних источников

   
 
Автор Сообщение

Ведьмочка Пол:Жен

31-Янв-2015 21:06

Кольт 45 / Colt 45
«Его лучше не трогать»


Страна: Франция , Бельгия
Год выпуска: 2014
Жанр: Боевик, Триллер, Драма
Продолжительность: 01:23:52
Режиссёр: Фабрис Дю Вельц
В ролях: Амр Вакед, Рихард Заммель, Элис Тальони, Симон Абкарян, Жерар Ланвен, Филипп Наон, Джои Старр, Микаела Фишер, Джо Престиа, Мик Гулд
Сюжет фильма:
Винсент Милиес несет службу в рядах Национальной полиции. Он является превосходным оружейником и первоклассным инструктором по стрельбе. Однажды, получается так, что карьера этого человека переворачивается. Когда он знакомится с Мило Карденом, в судьбе героя наступает череда различных перемен. Карден втягивает Винсента в спираль событий. Со временем Милиес будет втянут в жестокие и довольно-таки коварные войны между коллегами. Именно таким образом парню придется столкнуться с крестным отцом, командиром Люком Денардом, командиром Кристианом Чавесом и еще с огромным количеством личностей. В результате всего этого, наш главный персонаж уже в скором времени окажется в тупике, выйти из которого будет очень сложно…

Озвучивание:
  • Любительский, Многоголосный, Русский [Paradox]
  • Оригинал, Английский

Качество видео: BDRip-AVC
Формат: MKV

Видео: AVC, 1180x494 (2.40:1), 24.000 fps, ~2826 Кбит/сек
Аудио #1: AC-3, 448 Кбит/сек, 6 Каналов, 48.0 КГц
Аудио #2: AC-3, 448 Кбит/сек, 6 Каналов, 48.0 КГц

Субтитры #1: UTF-8 [Французские, Форсированные]
Субтитры #2: UTF-8 [Французские, Полные]

Rip by:



Общее
Уникальный идентификатор : 193704117614822159687802438227489207926 (0x91BA0E5911104FE5BCB7A70B206C3676)
Полное имя : \Kol't.45.2014.DUAL.BDRip.x264.-HELLYWOOD.mkv
Формат : Matroska
Версия формата : Version 4 / Version 2
Размер файла : 2,18 Гбайт
Продолжительность : 1 ч. 23 м.
Общий поток : 3723 Кбит/сек
Название фильма : Colt 45 (2014) - HELLYWOOD
Дата кодирования : UTC 2015-01-30 07:46:43
Программа кодирования : mkvmerge v5.9.0 ('On The Loose') built on Dec 15 2012 16:39:58
Библиотека кодирования : libebml v1.3.0 + libmatroska v1.4.0

Видео
Идентификатор : 1
Формат : AVC
Формат/Информация : Advanced Video Codec
Профиль формата : High@L4.1
Параметр CABAC формата : Да
Параметр ReFrames формата : 10 кадров
Идентификатор кодека : V_MPEG4/ISO/AVC
Продолжительность : 1 ч. 23 м.
Битрейт : 2826 Кбит/сек
Ширина : 1180 пикселей
Высота : 494 пикселя
Соотношение сторон : 2,40:1
Режим частоты кадров : Постоянный
Частота кадров : 24,000 кадра/сек
Цветовое пространство : YUV
Субдискретизация насыщенности : 4:2:0
Битовая глубина : 8 бит
Тип развёртки : Прогрессивная
Бит/(Пиксели*Кадры) : 0.202
Размер потока : 1,61 Гбайт (74%)
Заголовок : potroks
Библиотека кодирования : x264 core 130 r2273 b3065e6
Настройки программы : cabac=1 / ref=10 / deblock=1:-2:-2 / analyse=0x3:0x133 / me=umh / subme=11 / psy=1 / psy_rd=1.04:0.07 / mixed_ref=1 / me_range=48 / chroma_me=1 / trellis=2 / 8x8dct=1 / cqm=0 / deadzone=21,11 / fast_pskip=0 / chroma_qp_offset=-3 / threads=9 / lookahead_threads=7 / sliced_threads=0 / nr=0 / decimate=0 / interlaced=0 / bluray_compat=0 / constrained_intra=0 / bframes=11 / b_pyramid=2 / b_adapt=2 / b_bias=0 / direct=3 / weightb=1 / open_gop=0 / weightp=2 / keyint=250 / keyint_min=23 / scenecut=40 / intra_refresh=0 / rc_lookahead=60 / rc=2pass / mbtree=0 / bitrate=2826 / ratetol=1.0 / qcomp=0.70 / qpmin=0 / qpmax=69 / qpstep=4 / cplxblur=20.0 / qblur=0.5 / vbv_maxrate=50000 / vbv_bufsize=62500 / nal_hrd=none / ip_ratio=1.35 / pb_ratio=1.25 / aq=1:0.70
Язык : English
Default : Да
Forced : Нет

Аудио #1
Идентификатор : 2
Формат : AC-3
Формат/Информация : Audio Coding 3
Расширение режима : CM (complete main)
Параметр Endianness формата : Big
Идентификатор кодека : A_AC3
Продолжительность : 1 ч. 23 м.
Вид битрейта : Постоянный
Битрейт : 448 Кбит/сек
Каналы : 6 каналов
Расположение каналов : Front: L C R, Side: L R, LFE
Частота : 48,0 КГц
Битовая глубина : 16 бит
Метод сжатия : С потерями
Размер потока : 269 Мбайт (12%)
Заголовок : MVO | DD 5.1 @ 448 kbps - "Paradox"
Язык : Russian
Default : Да
Forced : Нет

Аудио #2
Идентификатор : 3
Формат : AC-3
Формат/Информация : Audio Coding 3
Расширение режима : CM (complete main)
Параметр Endianness формата : Big
Идентификатор кодека : A_AC3
Продолжительность : 1 ч. 23 м.
Вид битрейта : Постоянный
Битрейт : 448 Кбит/сек
Каналы : 6 каналов
Расположение каналов : Front: L C R, Side: L R, LFE
Частота : 48,0 КГц
Битовая глубина : 16 бит
Метод сжатия : С потерями
Размер потока : 269 Мбайт (12%)
Заголовок : Original | DD 5.1 @ 448 kbps
Язык : French
Default : Нет
Forced : Нет

Текст #1
Идентификатор : 4
Формат : UTF-8
Идентификатор кодека : S_TEXT/UTF8
Идентификатор кодека/Информация : UTF-8 Plain Text
Заголовок : форс.
Язык : French
Default : Нет
Forced : Нет

Текст #2
Идентификатор : 5
Формат : UTF-8
Идентификатор кодека : S_TEXT/UTF8
Идентификатор кодека/Информация : UTF-8 Plain Text
Язык : French
Default : Нет
Forced : Нет

Меню
00:00:00.000 : en:00:00:00.000
00:06:49.208 : en:00:06:49.208
00:15:34.333 : en:00:15:34.333
00:22:36.458 : en:00:22:36.458
00:30:00.125 : en:00:30:00.125
00:37:18.708 : en:00:37:18.708
00:45:33.667 : en:00:45:33.667
00:52:20.542 : en:00:52:20.542
00:59:26.792 : en:00:59:26.792
01:04:43.625 : en:01:04:43.625
01:10:33.500 : en:01:10:33.500
01:14:52.500 : en:01:14:52.500


picpicpicpicpic
Для увеличения картинки щелкните мышкой по превью



Этот торрент недоступен для скачивания без регистрации, однако доступен по публичной magnet-ссылке (источники с публичных трекеров). Перед использованием ссылки прочтите, пожалуйста Пользовательское соглашение, а также как можно дольше оставайтесь на раздаче! Для того, чтобы скачать сам торрент-файл (который видит больше источников), а также для того, чтобы поблагодарить релизера, вам необходимо зарегистрироваться. Если регистрироваться лень - вы можете также попробовать скачать релиз по нашим партнерским ссылкам ниже.

[underverse.su].t48893.torrent
Трекер: Зарегистрирован   [ 31.01.2015 21:06 ]  

Статус: проверено (by Ведьмочка at 31.01.2015 21:06)
Поблагодарили: пока никто не поблагодарил...
Тип торрента: публичный - доступные источники с открытых трекеров: 
Размер: 2,18 GB (занимает 1/2 DVDR, для записи нужно 1 болванка DVDR/RW)
 
 
Похожие темы
Форум Тема Автор Торрент Отв. Посл. сооб.
Зарубежное кино [DVDRip, Low-Res HDRip, и т.д.] Кольт 45 / Colt 45 (Фабрис Дю Вельц / Fabrice Du Welz) [2014 г., боевик, триллер, драма, криминал, HDRip] MVO ("Paradox") 90ytr90
4 | 0

0 | 669

36

26.01.2015 07:34

Зарубежное кино [DVDRip, Low-Res HDRip, и т.д.] Кольт 45 / Colt 45 (Фабрис Дю Вельц / Fabrice Du Welz) [2014 г., боевик, триллер, драма, криминал, HDRip-AVC] MVO ("Paradox") 90ytr90
16 | 1

0 | 317

9

07.02.2015 16:45

Зарубежное кино [DVDRip, Low-Res HDRip, и т.д.] Кольт 45 / Colt 45 (Фабрис Дю Вельц / Fabrice Du Welz) [2014 г., боевик, триллер, драма, криминал, HDRip] MVO ("Paradox") 90ytr90
9 | 0

0 | 539

7

19.02.2015 12:33

Зарубежное кино [DVD / HDDVD / BD / Remux] Кольт 45 / Colt 45 (Фабрис Дю Вельц / Fabrice Du Welz) [2014 г., боевик, триллер, драма, криминал, BDRemux 1080p]] MVO ("Paradox") + Original (Fre) + Sub (Fre) 90ytr90
0 | 0

0 | 1186

17

19.02.2015 16:38

Зарубежное кино [HDDVDRip / BDRip / WEB-DL / HDTV 1080/720р] Кольт 45 / Colt 45 (Фабрис Дю Вельц / Fabrice Du Welz) [2014 г., боевик, триллер, драма, криминал, BDRip 720p] MVO ("Paradox") + Original (Fre) + Sub (Fre) 90ytr90
1 | 0

1 | 495

12

05.02.2015 01:32

Зарубежное кино [HDDVDRip / BDRip / WEB-DL / HDTV 1080/720р] Кольт 45 / Colt 45 (Фабрис Дю Вельц / Fabrice Du Welz) [2014 г., боевик, триллер, драма, криминал, BDRip 1080p] MVO ("Paradox") + Original (Fre) + Sub (Fre) 90ytr90
9 | 0

0 | 448

7

27.01.2015 05:12


Яндекс.Метрика powered by Sphinx


В Н И М А Н И Е
Сайт не распространяет и не хранит электронные версии произведений, а лишь бесплатно и без коммерческой выгоды (не требуя взамен платы,
SMS и т.д.) предоставляет доступ к создаваемому пользователями каталогу ссылок на торрент-файлы, которые содержат только списки хеш-сумм.
Убедительная просьба с жалобами обращаться напрямую к пользователю, разместившему торрент файл.

Вверх