Loading...
Error

Дэвид Линч: Начало / La vie revee de David L (Пол Ле, Жульен Пикард) [2014 г., Драма, Биография, WEB-DLRip] DVO (RUS, Влад & Снежинка)

Статистика раздачи
Размер:  1,35 GB   |    Зарегистрирован:  1 год 10 месяцев   |    Скачан:  6 раз

Полного источника не было: 1 год 8 месяцев

Сидов:  0  |  0 KB/s  ]   Личеров:  0  |  0 KB/s  ]

* - сиды/пиры с внешних источников

   
 
Автор Сообщение

Ведьмочка Пол:Жен

31-Янв-2015 14:17

Дэвид Линч: Начало / La vie rêvée de David L


Страна: Франция
Год выпуска: 2014
Жанр: Драма, Биография
Продолжительность: 01:30:17
Режиссёр: Пол Ле, Жульен Пикард
В ролях: Сильвен Урбан, Лаура Масоисел, Амандин Клеп, Маргарита Дабрин, Ксавьер Амеллер, Жан-Давид Степлер, Николас Рамад, Жюли Дюсет, Жан-Машель Фоку, Од Лансьо
Сюжет фильма:
Фильм-фантазия на тему студенческих лет Дэвида Линча.
Действие перенесено в современный Париж. Молодой Давид учится в академии искусств, где изучает живопись и планирует стать художником. Однако после серии событий, граничащих с мистикой, он начинает осознавать, что его настоящей творческой страстью является кинематограф.


Озвучивание:
  • Любительский, Двухголосный, Русский [Влад & Снежинка]


Качество видео: WEB-DLRip
Формат: AVI

Видео: XviD, 704x320 (2,2:1), 25.000 fps, ~1945 Кбит/сек
Аудио: AC-3, 192 Кбит/сек, 2 Канала, 48.0 КГц



Общее
Полное имя : \Djevid.Linch.Nachalo.L2.WEB-DLRip.avi
Формат : AVI
Формат/Информация : Audio Video Interleave
Размер файла : 1,35 Гбайт
Продолжительность : 1 ч. 30 м.
Общий поток : 2146 Кбит/сек
Программа кодирования : VirtualDubMod 1.5.10.3 | www.virtualdub-fr.org || (build 2550/release)
Библиотека кодирования : VirtualDubMod build 2550/release

Видео
Идентификатор : 0
Формат : MPEG-4 Visual
Профиль формата : Advanced Simple@L5
Параметр BVOP формата : 1
Параметр QPel формата : Нет
Параметр GMC формата : Без точки перехода
Параметр матрицы формата : Выборочная
Идентификатор кодека : XVID
Идентификатор кодека/Подсказка : XviD
Продолжительность : 1 ч. 30 м.
Битрейт : 1945 Кбит/сек
Ширина : 704 пикселя
Высота : 320 пикселей
Соотношение сторон : 2,2:1
Частота кадров : 25,000 кадров/сек
Цветовое пространство : YUV
Субдискретизация насыщенности : 4:2:0
Битовая глубина : 8 бит
Тип развёртки : Прогрессивная
Метод сжатия : С потерями
Бит/(Пиксели*Кадры) : 0.345
Размер потока : 1,23 Гбайт (91%)
Библиотека кодирования : XviD 73

Аудио
Идентификатор : 1
Формат : AC-3
Формат/Информация : Audio Coding 3
Расширение режима : CM (complete main)
Параметр Endianness формата : Big
Идентификатор кодека : 2000
Продолжительность : 1 ч. 30 м.
Вид битрейта : Постоянный
Битрейт : 192 Кбит/сек
Каналы : 2 канала
Расположение каналов : Front: L R
Частота : 48,0 КГц
Битовая глубина : 16 бит
Метод сжатия : С потерями
Размер потока : 124 Мбайт (9%)
Выравнивание : Разделение по промежуткам
Продолжительность промежутка : 40 мс. (1,00 видеокадр)
Время предзагрузки промежутка : 500 мс.


picpicpicpicpic
Для увеличения картинки щелкните мышкой по превью



Этот торрент недоступен для скачивания без регистрации, однако доступен по публичной magnet-ссылке (источники с публичных трекеров). Перед использованием ссылки прочтите, пожалуйста Пользовательское соглашение, а также как можно дольше оставайтесь на раздаче! Для того, чтобы скачать сам торрент-файл (который видит больше источников), а также для того, чтобы поблагодарить релизера, вам необходимо зарегистрироваться. Если регистрироваться лень - вы можете также попробовать скачать релиз по нашим партнерским ссылкам ниже.

[underverse.su].t48881.torrent
Трекер: Зарегистрирован   [ 31.01.2015 14:17 ]  

Статус: T временная (by Ведьмочка at 31.01.2015 14:33)
Поблагодарили: пока никто не поблагодарил...
Тип торрента: публичный - доступные источники с открытых трекеров: 
Размер: 1,35 GB (занимает 0,31 DVDR, для записи нужно 1 болванка DVDR/RW)
 
 

Яндекс.Метрика powered by Sphinx


В Н И М А Н И Е
Сайт не распространяет и не хранит электронные версии произведений, а лишь бесплатно и без коммерческой выгоды (не требуя взамен платы,
SMS и т.д.) предоставляет доступ к создаваемому пользователями каталогу ссылок на торрент-файлы, которые содержат только списки хеш-сумм.
Убедительная просьба с жалобами обращаться напрямую к пользователю, разместившему торрент файл.

Вверх