Loading...
Error

Мужчины, женщины и дети / Men, Women & Children (Джейсон Райтман) [2014 г., Драма, Комедия, BDRip-AVC] MVO (RUS, Gears Media) + Original (ENG) + Subs (ENG)

Статистика раздачи
Размер:  2,18 GB   |    Зарегистрирован:  1 год 10 месяцев   |    Скачан:  4 раза

Полного источника не было: 1 час 2 минуты

Сидов:  0  |  0 KB/s  ]   Личеров:  0  |  0 KB/s  ]

* - сиды/пиры с внешних источников

   
 
Автор Сообщение

Ведьмочка Пол:Жен

31-Янв-2015 09:29

Мужчины, женщины и дети / Men, Women & Children


Страна: США
Год выпуска: 2014
Жанр: Драма, Комедия
Продолжительность: 01:59:27
Режиссёр: Джейсон Райтман
В ролях: Адам Сэндлер, Деннис Хэйсберт, Эмма Томпсон, Дж.К. Симмонс, Дженнифер Гарнер, Дин Норрис, Джейсон Дуглас, Джуди Грир, Гэри Тиг, Джефф Вицке
Сюжет фильма:
История о группе подростков и их родителях, которые пытаются понять, как интернет изменил их отношения, их связь, самооценку и любовь друг к другу.

Озвучивание:
  • Профессиональный, Многоголосный, Русский [Gears Media]
  • Оригинал, Английский


Качество видео: BDRip-AVC
Формат: MKV

Видео: AVC, 1024x576 (16:9), 23.976 fps, ~1717 Кбит/сек
Аудио #1: AC-3, 448 Кбит/сек, 6 Каналов, 48.0 КГц
Аудио #2: AC-3, 448 Кбит/сек, 6 Каналов, 48.0 КГц

Субтитры #1: UTF-8 [Английские, Полные]
Субтитры #2: UTF-8 [Английские, SDH]

Rip by:



Общее
Уникальный идентификатор : 230863162909677242363929443092171754206 (0xADAEA0BACD443D81942C075D3EE28ADE)
Полное имя : \Muzhchiny.Zhenschiny.&.Deti.2014.DUAL.BDRip.x264.-HELLYWOOD.mkv
Формат : Matroska
Версия формата : Version 4 / Version 2
Размер файла : 2,18 Гбайт
Продолжительность : 1 ч. 59 м.
Общий поток : 2615 Кбит/сек
Название фильма : Men, Women & Children (2014) - HELLYWOOD
Дата кодирования : UTC 2015-01-28 21:05:52
Программа кодирования : mkvmerge v5.9.0 ('On The Loose') built on Dec 15 2012 16:39:58
Библиотека кодирования : libebml v1.3.0 + libmatroska v1.4.0

Видео
Идентификатор : 1
Формат : AVC
Формат/Информация : Advanced Video Codec
Профиль формата : High@L4.1
Параметр CABAC формата : Да
Параметр ReFrames формата : 12 кадров
Идентификатор кодека : V_MPEG4/ISO/AVC
Продолжительность : 1 ч. 59 м.
Битрейт : 1717 Кбит/сек
Ширина : 1024 пикселя
Высота : 576 пикселей
Соотношение сторон : 16:9
Режим частоты кадров : Постоянный
Частота кадров : 23,976 кадра/сек
Цветовое пространство : YUV
Субдискретизация насыщенности : 4:2:0
Битовая глубина : 8 бит
Тип развёртки : Прогрессивная
Бит/(Пиксели*Кадры) : 0.121
Размер потока : 1,39 Гбайт (64%)
Заголовок : potroks
Библиотека кодирования : x264 core 130 r2273 b3065e6
Настройки программы : cabac=1 / ref=12 / deblock=1:-2:-2 / analyse=0x3:0x133 / me=umh / subme=11 / psy=1 / psy_rd=1.04:0.05 / mixed_ref=1 / me_range=48 / chroma_me=1 / trellis=2 / 8x8dct=1 / cqm=0 / deadzone=21,11 / fast_pskip=0 / chroma_qp_offset=-3 / threads=9 / lookahead_threads=8 / sliced_threads=0 / nr=0 / decimate=0 / interlaced=0 / bluray_compat=0 / constrained_intra=0 / bframes=13 / b_pyramid=2 / b_adapt=2 / b_bias=0 / direct=3 / weightb=1 / open_gop=0 / weightp=2 / keyint=250 / keyint_min=23 / scenecut=40 / intra_refresh=0 / rc_lookahead=60 / rc=2pass / mbtree=0 / bitrate=1717 / ratetol=1.0 / qcomp=0.70 / qpmin=0 / qpmax=69 / qpstep=4 / cplxblur=20.0 / qblur=0.5 / vbv_maxrate=50000 / vbv_bufsize=62500 / nal_hrd=none / ip_ratio=1.35 / pb_ratio=1.25 / aq=2:0.80
Язык : English
Default : Да
Forced : Нет

Аудио #1
Идентификатор : 2
Формат : AC-3
Формат/Информация : Audio Coding 3
Расширение режима : CM (complete main)
Параметр Endianness формата : Big
Идентификатор кодека : A_AC3
Продолжительность : 1 ч. 59 м.
Вид битрейта : Постоянный
Битрейт : 448 Кбит/сек
Каналы : 6 каналов
Расположение каналов : Front: L C R, Side: L R, LFE
Частота : 48,0 КГц
Битовая глубина : 16 бит
Метод сжатия : С потерями
Размер потока : 383 Мбайт (17%)
Заголовок : MVO | DD 5.1 @ 448 kbps - Gears Media
Язык : Russian
Default : Да
Forced : Нет

Аудио #2
Идентификатор : 3
Формат : AC-3
Формат/Информация : Audio Coding 3
Расширение режима : CM (complete main)
Параметр Endianness формата : Big
Идентификатор кодека : A_AC3
Продолжительность : 1 ч. 59 м.
Вид битрейта : Постоянный
Битрейт : 448 Кбит/сек
Каналы : 6 каналов
Расположение каналов : Front: L C R, Side: L R, LFE
Частота : 48,0 КГц
Битовая глубина : 16 бит
Метод сжатия : С потерями
Размер потока : 383 Мбайт (17%)
Заголовок : Original | DD 5.1 @ 448 kbps
Язык : English
Default : Нет
Forced : Нет

Текст #1
Идентификатор : 4
Формат : UTF-8
Идентификатор кодека : S_TEXT/UTF8
Идентификатор кодека/Информация : UTF-8 Plain Text
Заголовок : Full
Язык : English
Default : Нет
Forced : Нет

Текст #2
Идентификатор : 5
Формат : UTF-8
Идентификатор кодека : S_TEXT/UTF8
Идентификатор кодека/Информация : UTF-8 Plain Text
Заголовок : SDH
Язык : English
Default : Нет
Forced : Нет

Меню
00:00:00.000 : en:(01)00:00:00:000
00:05:44.093 : en:(02)00:05:44:093
00:09:58.681 : en:(03)00:09:58:681
00:14:15.813 : en:(04)00:14:15:813
00:17:59.828 : en:(05)00:17:59:828
00:21:30.872 : en:(06)00:21:30:872
00:26:15.490 : en:(07)00:26:15:490
00:30:14.813 : en:(08)00:30:14:813
00:35:02.975 : en:(09)00:35:02:975
00:45:45.325 : en:(10)00:45:45:325
00:49:00.228 : en:(11)00:49:00:228
00:53:56.900 : en:(12)00:53:56:900
01:01:14.629 : en:(13)01:01:14:629
01:06:36.158 : en:(14)01:06:36:158
01:10:47.701 : en:(15)01:10:47:701
01:19:38.690 : en:(16)01:19:38:690
01:25:52.147 : en:(17)01:25:52:147
01:28:48.573 : en:(18)01:28:48:573
01:36:39.752 : en:(19)01:36:39:752
01:48:45.477 : en:(20)01:48:45:477
01:54:51.593 : en:(21)01:54:51:593
01:59:26.951 : en:(22)01:59:26:951


picpicpicpicpic
Для увеличения картинки щелкните мышкой по превью



Этот торрент недоступен для скачивания без регистрации, однако доступен по публичной magnet-ссылке (источники с публичных трекеров). Перед использованием ссылки прочтите, пожалуйста Пользовательское соглашение, а также как можно дольше оставайтесь на раздаче! Для того, чтобы скачать сам торрент-файл (который видит больше источников), а также для того, чтобы поблагодарить релизера, вам необходимо зарегистрироваться. Если регистрироваться лень - вы можете также попробовать скачать релиз по нашим партнерским ссылкам ниже.

[underverse.su].t48876.torrent
Трекер: Зарегистрирован   [ 31.01.2015 09:29 ]  

Статус: проверено (by Ведьмочка at 31.01.2015 09:53)
Поблагодарили: пока никто не поблагодарил...
Тип торрента: публичный - доступные источники с открытых трекеров: 
Размер: 2,18 GB (занимает 1/2 DVDR, для записи нужно 1 болванка DVDR/RW)
 
 
Похожие темы
Форум Тема Автор Торрент Отв. Посл. сооб.
Зарубежное кино [DVDRip, Low-Res HDRip, и т.д.] Мужчины, женщины и дети / Men, Women & Children (Джейсон Рейтмен / Jason Reitman) [2014 г., драма, комедия, WEB-DLRip] MVO (Gears Media) 90ytr90
4 | 0

0 | 410

16

01.01.2015 19:38

Зарубежное кино [DVDRip, Low-Res HDRip, и т.д.] Мужчины, женщины и дети / Men, Women & Children (Джейсон Райтман) [2014 г., Драма, Комедия, HDRip] MVO (RUS, Gears Media) + Original (ENG) Ведьмочка
100 | 0

0 | 520

13

04.01.2015 06:49

T Зарубежное кино [DVDRip, Low-Res HDRip, и т.д.] Мужчины, женщины и дети / Men, Women & Children (Джейсон Рейтмен / Jason Reitman) [2014 г., драма, комедия, HDRip] Dub (iTunes) + Original (Eng) 90ytr90
1 | 0

0 | 352

2

26.01.2015 09:12

Зарубежное кино [DVDRip, Low-Res HDRip, и т.д.] Мужчины, женщины и дети / Men, Women & Children (Джейсон Рейтмен / Jason Reitman) [2014 г., драма, комедия, HDRip] Dub 90ytr90
1 | 0

0 | 386

2

28.02.2015 18:41

Зарубежное кино [DVDRip, Low-Res HDRip, и т.д.] Мужчины, женщины и дети / Men, Women & Children (Джейсон Рейтмен / Jason Reitman) [2014 г., драма, комедия, HDRip] Dub 90ytr90
6 | 0

0 | 411

3

28.02.2015 18:45

Зарубежное кино [DVDRip, Low-Res HDRip, и т.д.] Мужчины, женщины и дети / Men, Women & Children (Джейсон Рейтмен / Jason Reitman) [2014 г., драма, комедия, BDRip-AVC] Dub + Original (Eng) + Subs 90ytr90
3 | 0

0 | 433

6

28.02.2015 18:51

Discovery Мужчины, женщины, природа / Man, Woman, Wild (1 сезон: 1-7 серий из 7) [2015 г., документальный, познавательный, экстрим, HDTVRip] DVO ARI71
1 | 1

1 | 2264

2

22.03.2016 12:20

# Зарубежное кино [HDDVDRip / BDRip / WEB-DL / HDTV 1080/720р] Мужчины, женщины и дети / Men, Women & Children (Джейсон Райтман) [2014 г., Драма, Комедия, WEB-DL 720p] MVO (RUS, Gears Media) Ведьмочка
49 | 2

0 | 808

17

25.12.2014 08:42

Зарубежное кино [HDDVDRip / BDRip / WEB-DL / HDTV 1080/720р] Мужчины, женщины и дети / Men, Women & Children (Джейсон Рейтмен / Jason Reitman) [2014 г., драма, комедия, BDRip 720p] Dub + Original (Eng) + Sub (Rus, Eng) 90ytr90
2 | 0

0 | 462

0

28.02.2015 19:01

Зарубежное кино [HDDVDRip / BDRip / WEB-DL / HDTV 1080/720р] Мужчины, женщины и дети / Men, Women & Children (Джейсон Рейтмен / Jason Reitman) [2014 г., драма, комедия, BDRip 1080p] Dub + Original (Eng) + Sub (Rus, Eng) 90ytr90
1 | 1

0 | 465

4

28.02.2015 19:06


Яндекс.Метрика powered by Sphinx


В Н И М А Н И Е
Сайт не распространяет и не хранит электронные версии произведений, а лишь бесплатно и без коммерческой выгоды (не требуя взамен платы,
SMS и т.д.) предоставляет доступ к создаваемому пользователями каталогу ссылок на торрент-файлы, которые содержат только списки хеш-сумм.
Убедительная просьба с жалобами обращаться напрямую к пользователю, разместившему торрент файл.

Вверх