Loading...
Error

Василиса (Антон Сиверс) [2014 г., История, Мелодрама, HDRip] Original (RUS, Лицензия)

Статистика раздачи
Размер:  2,05 GB   |    Зарегистрирован:  1 год 10 месяцев   |    Скачан:  8 раз

Полного источника не было: 17 дней

Сидов:  0  |  0 KB/s  ]   Личеров:  0  |  0 KB/s  ]

* - сиды/пиры с внешних источников

   
 
Автор Сообщение

Ведьмочка Пол:Жен

30-Янв-2015 19:18

Василиса
«Моя любовь. Моя война. Моё отечество»


Страна: Россия
Год выпуска: 2014
Жанр: История, Мелодрама
Продолжительность: 01:39:51
Режиссёр: Антон Сиверс
В ролях: Светлана Ходченкова, Дмитрий Соломыкин, Жером Кузан, Кристина Кузьмина, Игорь Черневич, Андрей Ильин, Ирина Розанова, Илья Носков, Андрей Носков, Жоанн Морио
Сюжет фильма:
Он дворянин, а она — крепостная крестьянка… Им не суждено быть вместе. Возможно, так и закончилась бы эта любовная история, если бы не ВОЙНА. Наполеон вторгся в пределы Российской Империи, и этот день изменил привычный уклад и сословные предрассудки. Мир больше никогда не станет прежним. Война пишет новую историю любви.

Озвучивание:
  • Оригинал, Русский [Лицензия]

Качество видео: HDRip
Формат: AVI

Видео: XviD, 720x400 (16:9), 24.000 fps, ~2475 Кбит/сек
Аудио: AC-3, 448 Кбит/сек, 6 Каналов, 48.0 КГц

Rip by:



Общее
Полное имя : \Василиса. 2014. HDRip (AleksSin).avi
Формат : AVI
Формат/Информация : Audio Video Interleave
Профиль формата : OpenDML
Размер файла : 2,05 Гбайт
Продолжительность : 1 ч. 39 м.
Общий поток : 2935 Кбит/сек
Программа кодирования : VirtualDubMod 1.5.10.3 | www.virtualdub-fr.org || (build 2550/release)
Библиотека кодирования : VirtualDubMod build 2550/release

Видео
Идентификатор : 0
Формат : MPEG-4 Visual
Профиль формата : Advanced Simple@L5
Параметр BVOP формата : 2
Параметр QPel формата : Нет
Параметр GMC формата : Без точки перехода
Параметр матрицы формата : Выборочная
Идентификатор кодека : XVID
Идентификатор кодека/Подсказка : XviD
Продолжительность : 1 ч. 39 м.
Битрейт : 2475 Кбит/сек
Ширина : 720 пикселей
Высота : 400 пикселей
Соотношение сторон : 16:9
Частота кадров : 24,000 кадра/сек
Цветовое пространство : YUV
Субдискретизация насыщенности : 4:2:0
Битовая глубина : 8 бит
Тип развёртки : Прогрессивная
Метод сжатия : С потерями
Бит/(Пиксели*Кадры) : 0.358
Размер потока : 1,73 Гбайт (84%)
Библиотека кодирования : XviD 73

Аудио
Идентификатор : 1
Формат : AC-3
Формат/Информация : Audio Coding 3
Расширение режима : CM (complete main)
Параметр Endianness формата : Big
Идентификатор кодека : 2000
Продолжительность : 1 ч. 39 м.
Вид битрейта : Постоянный
Битрейт : 448 Кбит/сек
Каналы : 6 каналов
Расположение каналов : Front: L C R, Side: L R, LFE
Частота : 48,0 КГц
Битовая глубина : 16 бит
Метод сжатия : С потерями
Размер потока : 320 Мбайт (15%)
Выравнивание : Разделение по промежуткам
Продолжительность промежутка : 42 мс. (1,00 видеокадр)
Время предзагрузки промежутка : 500 мс.


picpicpicpicpic
Для увеличения картинки щелкните мышкой по превью



Этот торрент недоступен для скачивания без регистрации, однако доступен по публичной magnet-ссылке (источники с публичных трекеров). Перед использованием ссылки прочтите, пожалуйста Пользовательское соглашение, а также как можно дольше оставайтесь на раздаче! Для того, чтобы скачать сам торрент-файл (который видит больше источников), а также для того, чтобы поблагодарить релизера, вам необходимо зарегистрироваться. Если регистрироваться лень - вы можете также попробовать скачать релиз по нашим партнерским ссылкам ниже.

[underverse.su].t48866.torrent
Трекер: Зарегистрирован   [ 30.01.2015 19:18 ]  

Статус: проверено (by Ведьмочка at 30.01.2015 19:21)
Поблагодарили: пока никто не поблагодарил...
Тип торрента: публичный - доступные источники с открытых трекеров: 
Размер: 2,05 GB (занимает 0,47 DVDR, для записи нужно 1 болванка DVDR/RW)
 
 
Похожие темы
Форум Тема Автор Торрент Отв. Посл. сооб.
Наше кино [DVDRip, Low-Res HDRip, и т.д.] Василиса (Антон Сиверс) [2014 г., История, Мелодрама, HDRip] Original (RUS, Лицензия) Ведьмочка
4 | 0

0 | 427

23

30.01.2015 19:26

Наше кино [DVDRip, Low-Res HDRip, и т.д.] Василиса (Антон Сиверс) [2014 г., история, мелодрама, HDRip] 90ytr90
1 | 0

0 | 544

8

16.02.2015 16:44

Наше кино [DVDRip, Low-Res HDRip, и т.д.] Василиса (Антон Сиверс) [2014 г., история, мелодрама, BDRip-AVC] 90ytr90
0 | 0

0 | 563

8

16.02.2015 16:48

Наше кино [HDDVDRip / BDRip / WEB-DL / HDTV 1080/720р] Василиса (Антон Сиверс) [2014 г., История, Мелодрама, BDRip 720p] Original (RUS, Лицензия) Ведьмочка
0 | 0

0 | 490

5

30.01.2015 19:39

Наше кино [HDDVDRip / BDRip / WEB-DL / HDTV 1080/720р] Василиса (Антон Сиверс) [2014 г., История, Мелодрама, BDRip 1080p] Original (RUS, Лицензия) Ведьмочка
6 | 0

0 | 390

5

30.01.2015 19:58

Наше кино [HDDVDRip / BDRip / WEB-DL / HDTV 1080/720р] Василиса (Антон Сиверс) [2014 г., история, мелодрама, BDRip 720p] 90ytr90
1 | 0

0 | 811

10

27.02.2015 06:58

realman 

30-Янв-2015 22:56

шляпа??

Яндекс.Метрика powered by Sphinx


В Н И М А Н И Е
Сайт не распространяет и не хранит электронные версии произведений, а лишь бесплатно и без коммерческой выгоды (не требуя взамен платы,
SMS и т.д.) предоставляет доступ к создаваемому пользователями каталогу ссылок на торрент-файлы, которые содержат только списки хеш-сумм.
Убедительная просьба с жалобами обращаться напрямую к пользователю, разместившему торрент файл.

Вверх