Loading...
Error

Дракула / Dracula Untold (Гари Шор) [2014 г., ужасы, фэнтези, боевик, драма, BDRip] Dub (Rus,Ukr) + Original + Sub (Rus,Ukr,Eng) HQ Underverse

Статистика раздачи
Размер:  1,46 GB   |    Зарегистрирован:  1 год 10 месяцев   |    Скачан:  9 раз
Сидов:  1  |  0 KB/s  ]   Личеров:  0  |  0 KB/s  ]

* - сиды/пиры с внешних источников

   
 
Автор Сообщение

HQ Underverse 

30-Янв-2015 11:48

Дракула / Dracula Untold


Год выпуска: 2014
Жанр: ужасы, фэнтези, боевик, драма
Страна: США
Режиссер: Гари Шор
В ролях: Люк Эванс, Сара Гадон, Доминик Купер, Арт Паркинсон, Чарльз Дэнс, Дайармейд Мерта, Пол Кэй, Уильям Хьюстон, Ной Хантли, Ронан Вайберт
Сюжет фильма:
Влад Дракула был величайшим правителем, доблестным воином и страстным мужчиной. Но судьба свела его с врагом, коварство которого не знало границ. И тогда Дракула заключил сделку — нечеловеческая сила в обмен на самую малость — бессмертную душу…

  • Мировая премьера: 1 октября 2014
  • Российская премьера: 9 октября 2014, «UPI»

/
Качество видео: BDRip

Продолжительность: 01:32:07
Формат: avi
Видео: XviD, 720x304, 1810 kbps
Аудио #1: русский, дублированный [лицензия], AC3 5.1, 448 kbps
Аудио #2: английский, оригинал, AC3 5.1, 448 kbps (отдельным файлом: здесь)
Субтитры #1: внешние, SRT, русский
Субтитры #2: внешние, SRT, украинский
Субтитры #3: внешние, SRT, русский (FORCED)
Субтитры #4: внешние, SRT, английский

Код:

General
Complete name                    : Y:\Дракула\Dracula.Untold.2014.BDRip.XviD.AC3.Rus.D.HQ.Underverse.avi
Format                           : AVI
Format/Info                      : Audio Video Interleave
File size                        : 1.46 GiB
Duration                         : 1h 32mn
Overall bit rate                 : 2 268 Kbps
Writing application              : VirtualDubMod 1.5.10.3 | www.virtualdub-fr.org || (build 2550/release)
Writing library                  : VirtualDubMod build 2550/release

Video
ID                               : 0
Format                           : MPEG-4 Visual
Format profile                   : Streaming Video@L1
Format settings, BVOP            : Yes
Format settings, QPel            : No
Format settings, GMC             : No warppoints
Format settings, Matrix          : Custom
Codec ID                         : XVID
Codec ID/Hint                    : XviD
Duration                         : 1h 32mn
Bit rate                         : 1 811 Kbps
Width                            : 720 pixels
Height                           : 304 pixels
Display aspect ratio             : 2.35
Frame rate                       : 23.976 fps
Resolution                       : 24 bits
Colorimetry                      : 4:2:0
Scan type                        : Progressive
Bits/(Pixel*Frame)               : 0.345
Stream size                      : 1.17 GiB (80%)
Writing library                  : XviD 66

Audio
ID                               : 1
Format                           : AC-3
Format/Info                      : Audio Coding 3
Codec ID                         : 2000
Duration                         : 1h 32mn
Bit rate mode                    : Constant
Bit rate                         : 448 Kbps
Channel(s)                       : 6 channels
Channel positions                : Front: L C R, Surround: L R, LFE
Sampling rate                    : 48.0 KHz
Stream size                      : 295 MiB (20%)
Alignment                        : Split accross interleaves
Interleave, duration             : 42 ms (1.00 video frame)
Interleave, preload duration     : 500 ms

General
Complete name                    : Y:\Дракула\Dracula.Untold.2014.BDRip.XviD.AC3.Rus.D.HQ.Underverse.ENG.ac3
Format                           : AC-3
Format/Info                      : Audio Coding 3
File size                        : 295 MiB
Duration                         : 1h 32mn
Overall bit rate                 : 448 Kbps

Audio
Format                           : AC-3
Format/Info                      : Audio Coding 3
Duration                         : 1h 32mn
Bit rate mode                    : Constant
Bit rate                         : 448 Kbps
Channel(s)                       : 6 channels
Channel positions                : Front: L C R, Surround: L R, LFE
Sampling rate                    : 48.0 KHz
Stream size                      : 295 MiB (100%)

Релиз группы:

picpicpic
Для увеличения картинки щелкните мышкой по превью

Этот торрент недоступен для скачивания без регистрации, однако доступен по публичной magnet-ссылке (источники с публичных трекеров). Перед использованием ссылки прочтите, пожалуйста Пользовательское соглашение, а также как можно дольше оставайтесь на раздаче! Для того, чтобы скачать сам торрент-файл (который видит больше источников), а также для того, чтобы поблагодарить релизера, вам необходимо зарегистрироваться. Если регистрироваться лень - вы можете также попробовать скачать релиз по нашим партнерским ссылкам ниже.

[underverse.su].t48842.torrent
Трекер: Зарегистрирован   [ 30.01.2015 11:48 ]  

Статус: проверено (by HQ Underverse at 30.01.2015 11:54)
Поблагодарили: 4 человека
Тип торрента: публичный - доступные источники с открытых трекеров: 
Размер: 1,46 GB (занимает 0,33 DVDR, для записи нужно 1 болванка DVDR/RW)
 
 
Похожие темы
Форум Тема Автор Торрент Отв. Посл. сооб.
Зарубежное кино [DVDRip, Low-Res HDRip, и т.д.] Дракула / Dracula (Дарио Ардженто) [2012 г., ужасы, триллер, мелодрама, BDRip-AVC] AVO (А.Дольский) + Eng 90ytr90
1 | 0

0 | 699

11

30.04.2013 12:49

Зарубежное кино [DVDRip, Low-Res HDRip, и т.д.] Дракула / Dracula (Дарио Ардженто / Dario Argento) [2012 г., ужасы, триллер, мелодрама, HDRip] MVO 90ytr90
0 | 0

0 | 1283

15

15.03.2014 19:47

Зарубежное кино [DVDRip, Low-Res HDRip, и т.д.] Дракула / Dracula Untold (Гари Шор / Gary Shore) [2014 г., ужасы, фэнтези, боевик, драма, вампиры, BDRip] Dub 90ytr90
1 | 0

0 | 591

20

24.01.2015 17:24

Зарубежное кино [DVDRip, Low-Res HDRip, и т.д.] Дракула / Dracula Untold (Гари Шор / Gary Shore) [2014 г., ужасы, фэнтези, боевик, драма, вампиры, BDRip-AVC] Dub + Subs 90ytr90
4 | 0

0 | 582

17

24.01.2015 17:52

Зарубежное кино [DVDRip, Low-Res HDRip, и т.д.] Дракула / Dracula Untold (Гари Шор / Gary Shore) [2014 г., ужасы, фэнтези, боевик, драма, вампиры, HDRip] AVO (Дольский) 90ytr90
6 | 0

0 | 299

5

23.02.2016 16:42

Зарубежное кино [DVDRip, Low-Res HDRip, и т.д.] Дракула / Dracula Untold (Гари Шор / Gary Shore) [2014 г., ужасы, фэнтези, боевик, драма, вампиры, HDRip] AVO (Визгунов) 90ytr90
12 | 0

0 | 469

3

23.02.2016 16:50

Зарубежное кино [HDDVDRip / BDRip / WEB-DL / HDTV 1080/720р] Дракула / Dracula (Дарио Ардженто / Dario Argento) [2012 г., ужасы, триллер, мелодрама, BDRip 720p] MVO + Original (Eng) + Sub (Rus) 90ytr90
3 | 0

0 | 1250

21

15.03.2014 20:00

Зарубежное кино [HDDVDRip / BDRip / WEB-DL / HDTV 1080/720р] Дракула / Dracula Untold (Гари Шор / Gary Shore) [2014 г., ужасы, фэнтези, боевик, драма, вампиры, BDRip 720p] Dub + Original (Eng) + Subs 90ytr90
18 | 0

0 | 512

10

24.01.2015 17:37

Зарубежное кино [HDDVDRip / BDRip / WEB-DL / HDTV 1080/720р] Дракула / Dracula Untold (Гари Шор / Gary Shore) [2014 г., ужасы, фэнтези, боевик, драма, вампиры, BDRip 1080p] Dub + Original (Eng) + Sub (Rus, Eng) 90ytr90
7 | 1

0 | 519

6

24.01.2015 17:45

Зарубежное кино [HDDVDRip / BDRip / WEB-DL / HDTV 1080/720р] Дракула / Dracula Untold (Гари Шор / Gary Shore) [2014 г., ужасы, фэнтези, боевик, драма, вампиры, BDRip 1080p] Dub + Original (Eng) + Sub (Rus, Eng) 90ytr90
38 | 1

0 | 492

8

25.01.2015 11:59


Яндекс.Метрика powered by Sphinx


В Н И М А Н И Е
Сайт не распространяет и не хранит электронные версии произведений, а лишь бесплатно и без коммерческой выгоды (не требуя взамен платы,
SMS и т.д.) предоставляет доступ к создаваемому пользователями каталогу ссылок на торрент-файлы, которые содержат только списки хеш-сумм.
Убедительная просьба с жалобами обращаться напрямую к пользователю, разместившему торрент файл.

Вверх