Loading...
Error

Заложница 3 / Taken 3 (Оливье Мегатон) [2014 г., Боевик, Триллер, HDTVRip] Dub (RUS, Чистый звук)

Статистика раздачи
Размер:  1,37 GB   |    Зарегистрирован:  1 год 10 месяцев   |    Скачан:  80 раз

Полного источника не было: 2 дня 7 часов

Сидов:  0  |  0 KB/s  ]   Личеров:  0  |  0 KB/s  ]

* - сиды/пиры с внешних источников

   
 
Автор Сообщение

Ведьмочка Пол:Жен

29-Янв-2015 14:58

Заложница 3 / Taken 3
«Это конец»


Страна: Франция
Год выпуска: 2014
Жанр: Боевик, Триллер
Продолжительность: 01:44:03
Режиссёр: Оливье Мегатон
В ролях: Лиам Нисон, Форест Уитакер, Фамке Янссен, Мэгги Грэйс, Дон Харви, Дилан Бруно, Дэвид Уоршофски, Джон Грайз, Эндрю Борба, Джуди Бичер
Сюжет фильма:
Жизнь бывшего правительственного агента Брайана Миллса рушится, когда его обвиняют в убийстве, которого он не совершал. Преследуемый опытным инспектором полиции, Миллс пытается отследить настоящего убийцу…

Озвучивание:
  • Дублированный, Русский [Чистый звук]

Качество видео: HDTVRip
Формат: AVI

Видео: XviD, 720x304 (2.35:1), 25.000 fps, ~1743 Кбит/сек
Аудио: AC-3, 128 Кбит/сек, 2 Канала, 48.0 КГц



Общее
Полное имя : \Z4l0zhnica.2014.D.HDTVRip.1400MB.avi
Формат : AVI
Формат/Информация : Audio Video Interleave
Размер файла : 1,37 Гбайт
Продолжительность : 1 ч. 44 м.
Общий поток : 1880 Кбит/сек
Программа кодирования : VirtualDubMod 1.5.10.2 (build 2540/release)
Библиотека кодирования : VirtualDubMod build 2540/release

Видео
Идентификатор : 0
Формат : MPEG-4 Visual
Профиль формата : Advanced Simple@L5
Параметр BVOP формата : 2
Параметр QPel формата : Нет
Параметр GMC формата : Без точки перехода
Параметр матрицы формата : Default (MPEG)
Идентификатор кодека : XVID
Идентификатор кодека/Подсказка : XviD
Продолжительность : 1 ч. 44 м.
Битрейт : 1743 Кбит/сек
Ширина : 720 пикселей
Высота : 304 пикселя
Соотношение сторон : 2,35:1
Частота кадров : 25,000 кадров/сек
Цветовое пространство : YUV
Субдискретизация насыщенности : 4:2:0
Битовая глубина : 8 бит
Тип развёртки : Прогрессивная
Метод сжатия : С потерями
Бит/(Пиксели*Кадры) : 0.318
Размер потока : 1,27 Гбайт (93%)
Библиотека кодирования : XviD 1.2.1 (UTC 2008-12-04)

Аудио
Идентификатор : 1
Формат : AC-3
Формат/Информация : Audio Coding 3
Расширение режима : CM (complete main)
Параметр Endianness формата : Big
Идентификатор кодека : 2000
Продолжительность : 1 ч. 44 м.
Вид битрейта : Постоянный
Битрейт : 128 Кбит/сек
Каналы : 2 канала
Расположение каналов : Front: L R
Частота : 48,0 КГц
Битовая глубина : 16 бит
Метод сжатия : С потерями
Размер потока : 95,2 Мбайт (7%)
Выравнивание : Разделение по промежуткам
Продолжительность промежутка : 40 мс. (1,00 видеокадр)
Время предзагрузки промежутка : 500 мс.


picpicpicpicpic
Для увеличения картинки щелкните мышкой по превью



Этот торрент недоступен для скачивания без регистрации, однако доступен по публичной magnet-ссылке (источники с публичных трекеров). Перед использованием ссылки прочтите, пожалуйста Пользовательское соглашение, а также как можно дольше оставайтесь на раздаче! Для того, чтобы скачать сам торрент-файл (который видит больше источников), а также для того, чтобы поблагодарить релизера, вам необходимо зарегистрироваться. Если регистрироваться лень - вы можете также попробовать скачать релиз по нашим партнерским ссылкам ниже.

[underverse.su].t48827.torrent
Трекер: Зарегистрирован   [ 29.01.2015 14:58 ]  

Статус: T временная (by Ведьмочка at 29.01.2015 15:31)
Поблагодарили: 2 человека
Тип торрента: публичный - доступные источники с открытых трекеров: 
Размер: 1,37 GB (занимает 0,31 DVDR, для записи нужно 1 болванка DVDR/RW)
 
 
Похожие темы
Форум Тема Автор Торрент Отв. Посл. сооб.
T Зарубежное кино [DVDRip, Low-Res HDRip, и т.д.] Заложница 2 / Taken 2 (Оливье Мегатон) [2012, Боевик, Триллер, Драма, BDRip] Dub [Чистый звук] + MVO Ukr (Омикрон) + Original Eng Garnett
2 | 0

1 | 1335

24

07.01.2013 09:49

Зарубежное кино [DVDRip, Low-Res HDRip, и т.д.] Заложница 2 / Taken 2 [Theatrical Cut] (Оливье Мегатон) [2012 г., Боевик, триллер, драма, криминал, HDRip] Dub 90ytr90
0 | 0

0 | 1678

100

07.02.2013 14:48

Зарубежное кино [DVDRip, Low-Res HDRip, и т.д.] Заложница 2 / Taken 2 [Unrated Extended Cut] (Оливье Мегатон) [2012 г., боевик, триллер, драма, криминал, HDRip] Dub garry
2 | 0

0 | 1790

14

26.10.2013 22:17

Зарубежное кино [DVDRip, Low-Res HDRip, и т.д.] Заложница 2 / Taken 2 [Unrated Extended Cut] (Оливье Мегатон) [2012 г., боевик, триллер, драма, криминал, BDRip-AVC] Dub + Original garry
1 | 0

0 | 943

28

26.10.2013 22:28

T Зарубежное кино [DVDRip, Low-Res HDRip, и т.д.] Заложница 3 / Taken 3 (Оливье Мегатон) [2014 г., боевик, триллер, криминал, HDTVRip] Dub [Звук с CAMRip] Паукан
0 | 0

0 | 1673

107

23.01.2015 13:16

T Зарубежное кино [DVDRip, Low-Res HDRip, и т.д.] Заложница 3 / Taken 3 (Оливье Мегатон / Olivier Megaton) [2014 г., боевик, триллер, HDTVRip] Dub (звук с CAMRip) + Original (Eng) 90ytr90
15 | 0

0 | 859

23

24.01.2015 20:56

T Зарубежное кино [DVDRip, Low-Res HDRip, и т.д.] Заложница 3 / Taken 3 (Оливье Мегатон / Olivier Megaton) [2014 г., боевик, триллер, WEB-DLRip] 90ytr90
0 | 0

0 | 786

11

28.01.2015 09:51

T Зарубежное кино [DVDRip, Low-Res HDRip, и т.д.] Заложница 3 / Taken 3 (Оливье Мегатон / Olivier Megaton) [2014 г., боевик, триллер, HDTVRip] Dub (чистый звук) + Original (Eng) 90ytr90
1 | 0

0 | 910

41

29.01.2015 16:45

T Зарубежное кино [DVDRip, Low-Res HDRip, и т.д.] Заложница 3 / Taken 3 (Оливье Мегатон / Olivier Megaton) [2014 г., боевик, триллер, HDTVRip-AVC] Dub (чистый звук) + Original (Eng) 90ytr90
2 | 0

0 | 787

60

30.01.2015 16:11

T Зарубежное кино [DVDRip, Low-Res HDRip, и т.д.] Заложница 3 / Taken 3 (Оливье Мегатон) [2014 г., боевик, триллер, криминал, HDRip] Dub [чистый звук] + Original Паукан
1 | 0

0 | 729

21

03.04.2015 15:41


Яндекс.Метрика powered by Sphinx


В Н И М А Н И Е
Сайт не распространяет и не хранит электронные версии произведений, а лишь бесплатно и без коммерческой выгоды (не требуя взамен платы,
SMS и т.д.) предоставляет доступ к создаваемому пользователями каталогу ссылок на торрент-файлы, которые содержат только списки хеш-сумм.
Убедительная просьба с жалобами обращаться напрямую к пользователю, разместившему торрент файл.

Вверх