Loading...
Error

Странствующая блудница: Предсказание / Das Vermachtnis der Wanderhure (Томас Неннштил) [2012 г., Драма, HDRip] MVO (RUS, РЕН-ТВ) + Original (GER)

Статистика раздачи
Размер:  2,19 GB   |    Зарегистрирован:  1 год 10 месяцев   |    Скачан:  17 раз
Сидов:  1  |  0 KB/s  ]   Личеров:  0  |  0 KB/s  ]

* - сиды/пиры с внешних источников

   
 
Автор Сообщение

Ведьмочка Пол:Жен

28-Янв-2015 18:10

Странствующая блудница: Предсказание / Das Vermächtnis der Wanderhure


Страна: Германия , Чехия
Год выпуска: 2012
Жанр: Драма
Продолжительность: 02:02:06
Режиссёр: Томас Неннштил
В ролях: Александра Нелдель, Берт Тишендорф, Юли Энгельбрехт, Михаэль Штайнохер, Гёц Отто, Иль-Ён Ким, Флоренс Касумба, Аугуст Шмёльцер, Михаэль Фуйт, Надя Бекер
Сюжет фильма:
Михаэль стал членом тайного Ордена Дракона при дворе короля Сигизмунда, и Мари быстро приспособилась к новой жизни. Она блистает при дворе, но снова ее счастье оказывается под угрозой. На этот раз коварную интригу затеяла королевская любовница Хюльда фон Хеттенхайм.

Озвучивание:
  • Профессиональный, Многоголосный, Русский [РЕН-ТВ]
  • Оригинал, Немецкий

Качество видео: HDRip
Формат: AVI

Видео: XviD, 720x400 (16:9), 25.000 fps, ~1905 Кбит/сек
Аудио #1: AC-3, 192 Кбит/сек, 2 Канала, 48.0 КГц
Аудио #2: AC-3, 448 Кбит/сек, 6 Каналов, 48.0 КГц



Общее
Полное имя : \Странствующая блудница. Предсказание.avi
Формат : AVI
Формат/Информация : Audio Video Interleave
Профиль формата : OpenDML
Размер файла : 2,19 Гбайт
Продолжительность : 2 ч. 2 м.
Общий поток : 2563 Кбит/сек
Название фильма : Странствующая блудница: Предсказание / Das Vermachtnis der Wanderhure (2012)
Программа кодирования : VirtualDubMod 1.5.10.2 (build 2540/release)
Библиотека кодирования : VirtualDubMod build 2540/release
Правообладатель : miha2154

Видео
Идентификатор : 0
Формат : MPEG-4 Visual
Профиль формата : Advanced Simple@L5
Параметр BVOP формата : 1
Параметр QPel формата : Нет
Параметр GMC формата : Без точки перехода
Параметр матрицы формата : Выборочная
Идентификатор кодека : XVID
Идентификатор кодека/Подсказка : XviD
Продолжительность : 2 ч. 2 м.
Битрейт : 1905 Кбит/сек
Ширина : 720 пикселей
Высота : 400 пикселей
Соотношение сторон : 16:9
Частота кадров : 25,000 кадров/сек
Цветовое пространство : YUV
Субдискретизация насыщенности : 4:2:0
Битовая глубина : 8 бит
Тип развёртки : Прогрессивная
Метод сжатия : С потерями
Бит/(Пиксели*Кадры) : 0.265
Размер потока : 1,62 Гбайт (74%)
Библиотека кодирования : XviD 65

Аудио #1
Идентификатор : 1
Формат : AC-3
Формат/Информация : Audio Coding 3
Расширение режима : CM (complete main)
Параметр Endianness формата : Big
Идентификатор кодека : 2000
Продолжительность : 2 ч. 2 м.
Вид битрейта : Постоянный
Битрейт : 192 Кбит/сек
Каналы : 2 канала
Расположение каналов : Front: L R
Частота : 48,0 КГц
Битовая глубина : 16 бит
Метод сжатия : С потерями
Размер потока : 168 Мбайт (7%)
Выравнивание : Разделение по промежуткам
Продолжительность промежутка : 40 мс. (1,00 видеокадр)
Время предзагрузки промежутка : 500 мс.
Заголовок : Профессиональный (многоголосый закадровый) РенТВ

Аудио #2
Идентификатор : 2
Формат : AC-3
Формат/Информация : Audio Coding 3
Расширение режима : CM (complete main)
Параметр Endianness формата : Big
Идентификатор кодека : 2000
Продолжительность : 2 ч. 2 м.
Вид битрейта : Постоянный
Битрейт : 448 Кбит/сек
Каналы : 6 каналов
Расположение каналов : Front: L C R, Side: L R, LFE
Частота : 48,0 КГц
Битовая глубина : 16 бит
Метод сжатия : С потерями
Размер потока : 391 Мбайт (17%)
Выравнивание : Разделение по промежуткам
Продолжительность промежутка : 40 мс. (1,00 видеокадр)
Время предзагрузки промежутка : 500 мс.
Заголовок : Немецкий


picpicpicpicpic
Для увеличения картинки щелкните мышкой по превью



Этот торрент недоступен для скачивания без регистрации, однако доступен по публичной magnet-ссылке (источники с публичных трекеров). Перед использованием ссылки прочтите, пожалуйста Пользовательское соглашение, а также как можно дольше оставайтесь на раздаче! Для того, чтобы скачать сам торрент-файл (который видит больше источников), а также для того, чтобы поблагодарить релизера, вам необходимо зарегистрироваться. Если регистрироваться лень - вы можете также попробовать скачать релиз по нашим партнерским ссылкам ниже.

[underverse.su].t48803.torrent
Трекер: Зарегистрирован   [ 28.01.2015 18:10 ]  

Статус: проверено (by Ведьмочка at 28.01.2015 18:11)
Поблагодарили: 2 человека
Тип торрента: публичный - доступные источники с открытых трекеров: 
Размер: 2,19 GB (занимает 1/2 DVDR, для записи нужно 1 болванка DVDR/RW)
 
 
Похожие темы
Форум Тема Автор Торрент Отв. Посл. сооб.
Зарубежное кино [DVDRip, Low-Res HDRip, и т.д.] Странствующая блудница / Die Wanderhure (Хансйорг Турн) [2010 г., Драма, Мелодрама, DVDRip] MVO (RUS, РЕН-ТВ) + Original (GER) Ведьмочка
5 | 0

1 | 556

11

28.01.2015 17:40

Зарубежное кино [DVDRip, Low-Res HDRip, и т.д.] Странствующая блудница: Месть / Die Rache der Wanderhure (Хансйорг Турн) [2012 г., Драма, Мелодрама, SATRip] MVO (RUS, РЕН-ТВ) Ведьмочка
17 | 1

0 | 975

14

28.01.2015 17:58


Яндекс.Метрика powered by Sphinx


В Н И М А Н И Е
Сайт не распространяет и не хранит электронные версии произведений, а лишь бесплатно и без коммерческой выгоды (не требуя взамен платы,
SMS и т.д.) предоставляет доступ к создаваемому пользователями каталогу ссылок на торрент-файлы, которые содержат только списки хеш-сумм.
Убедительная просьба с жалобами обращаться напрямую к пользователю, разместившему торрент файл.

Вверх