Loading...
Error

Странствующая блудница: Месть / Die Rache der Wanderhure (Хансйорг Турн) [2012 г., Драма, Мелодрама, SATRip] MVO (RUS, РЕН-ТВ)

Статистика раздачи
Размер:  1,61 GB   |    Зарегистрирован:  1 год 10 месяцев   |    Скачан:  14 раз
Сидов:  1  |  0 KB/s  ]   Личеров:  0  |  0 KB/s  ]

* - сиды/пиры с внешних источников

   
 
Автор Сообщение

Ведьмочка Пол:Жен

28-Янв-2015 17:58

Странствующая блудница: Месть / Die Rache der Wanderhure


Страна: Германия , Австрия , Чехия
Год выпуска: 2012
Жанр: Драма, Мелодрама
Продолжительность: 01:59:01
Режиссёр: Хансйорг Турн
В ролях: Александра Нелдель, Берт Тишендорф, Юлиан Вайгенд, Йоханнес Криш, Эстер Швейнс, Гёц Отто, Иль-Ён Ким, Майкл Маркфорт, Хари Принц, Гельмут Бергер
Сюжет фильма:
Мари зажила счастливой жизнью вместе с любимым и маленькой дочкой. Но она не знает, что один из ее врагов по-прежнему на свободе, и мысль о ней по-прежнему не дает ему покоя. Тем временем муж Мари отправляется в армию по приказу короля.

Озвучивание:
  • Профессиональный, Многоголосный, Русский [РЕН-ТВ]

Качество видео: SATRip
Формат: AVI

Видео: XviD, 720x448 (16:10), 25.000 fps, ~1800 Кбит/сек
Аудио: MP3, 128 Кбит/сек, 2 Канала, 48.0 КГц



Общее
Полное имя : \Странствующая блудница.Месть.avi
Формат : AVI
Формат/Информация : Audio Video Interleave
Размер файла : 1,61 Гбайт
Продолжительность : 1 ч. 59 м.
Общий поток : 1938 Кбит/сек
Программа кодирования : VirtualDubMod 1.5.10.3 | www.virtualdub-fr.org || (build 2550/release)
Библиотека кодирования : VirtualDub build 32507/release

Видео
Идентификатор : 0
Формат : MPEG-4 Visual
Профиль формата : Advanced Simple@L5
Параметр BVOP формата : 2
Параметр QPel формата : Нет
Параметр GMC формата : Без точки перехода
Параметр матрицы формата : Default (MPEG)
Идентификатор кодека : XVID
Идентификатор кодека/Подсказка : XviD
Продолжительность : 1 ч. 59 м.
Битрейт : 1800 Кбит/сек
Ширина : 720 пикселей
Высота : 448 пикселей
Соотношение сторон : 16:10
Частота кадров : 25,000 кадров/сек
Цветовое пространство : YUV
Субдискретизация насыщенности : 4:2:0
Битовая глубина : 8 бит
Тип развёртки : Прогрессивная
Метод сжатия : С потерями
Бит/(Пиксели*Кадры) : 0.223
Размер потока : 1,50 Гбайт (93%)
Библиотека кодирования : XviD 1.2.1 (UTC 2008-12-04)

Аудио
Идентификатор : 1
Формат : MPEG Audio
Версия формата : Version 1
Профиль формата : Layer 3
Режим : Joint stereo
Расширение режима : MS Stereo
Идентификатор кодека : 55
Идентификатор кодека/Подсказка : MP3
Продолжительность : 1 ч. 59 м.
Вид битрейта : Постоянный
Битрейт : 128 Кбит/сек
Каналы : 2 канала
Частота : 48,0 КГц
Метод сжатия : С потерями
Размер потока : 109 Мбайт (7%)
Выравнивание : Соединение по промежуткам
Продолжительность промежутка : 40 мс. (1,00 видеокадр)
Время предзагрузки промежутка : 504 мс.
Библиотека кодирования : LAME3.99r
Настройки программы : -m j -V 4 -q 2 -lowpass 17 -b 128


picpicpicpicpic
Для увеличения картинки щелкните мышкой по превью



Этот торрент недоступен для скачивания без регистрации, однако доступен по публичной magnet-ссылке (источники с публичных трекеров). Перед использованием ссылки прочтите, пожалуйста Пользовательское соглашение, а также как можно дольше оставайтесь на раздаче! Для того, чтобы скачать сам торрент-файл (который видит больше источников), а также для того, чтобы поблагодарить релизера, вам необходимо зарегистрироваться. Если регистрироваться лень - вы можете также попробовать скачать релиз по нашим партнерским ссылкам ниже.

[underverse.su].t48802.torrent
Трекер: Зарегистрирован   [ 28.01.2015 17:58 ]  

Статус: проверено (by Ведьмочка at 28.01.2015 18:11)
Поблагодарили: 2 человека
Тип торрента: публичный - доступные источники с открытых трекеров: 
Размер: 1,61 GB (занимает 0,37 DVDR, для записи нужно 1 болванка DVDR/RW)
 
 
Похожие темы
Форум Тема Автор Торрент Отв. Посл. сооб.
Зарубежное кино [DVDRip, Low-Res HDRip, и т.д.] Странствующая блудница / Die Wanderhure (Хансйорг Турн) [2010 г., Драма, Мелодрама, DVDRip] MVO (RUS, РЕН-ТВ) + Original (GER) Ведьмочка
5 | 0

1 | 556

11

28.01.2015 17:40

Зарубежное кино [DVDRip, Low-Res HDRip, и т.д.] Странствующая блудница: Предсказание / Das Vermachtnis der Wanderhure (Томас Неннштил) [2012 г., Драма, HDRip] MVO (RUS, РЕН-ТВ) + Original (GER) Ведьмочка
12 | 2

0 | 627

17

28.01.2015 18:10


Яндекс.Метрика powered by Sphinx


В Н И М А Н И Е
Сайт не распространяет и не хранит электронные версии произведений, а лишь бесплатно и без коммерческой выгоды (не требуя взамен платы,
SMS и т.д.) предоставляет доступ к создаваемому пользователями каталогу ссылок на торрент-файлы, которые содержат только списки хеш-сумм.
Убедительная просьба с жалобами обращаться напрямую к пользователю, разместившему торрент файл.

Вверх