Loading...
Error

Эскорт / The Escort (Гэри Грейвер) [1997 г., Триллер, Драма, DVDRip] DVO (RUS) + Original (ENG)

Статистика раздачи
Размер:  1,37 GB   |    Зарегистрирован:  1 год 10 месяцев   |    Скачан:  3 раза

Полного источника не было: 1 год 9 месяцев

Сидов:  0  |  0 KB/s  ]   Личеров:  0  |  0 KB/s  ]

* - сиды/пиры с внешних источников

   
 
Автор Сообщение

Ведьмочка Пол:Жен

28-Янв-2015 16:29

Эскорт / The Escort
«The night is deadly»


Страна: США
Год выпуска: 1997
Жанр: Триллер, Драма
Продолжительность: 01:26:36
Режиссёр: Гэри Грейвер
В ролях: Шона О’Брайэн, Лэндон Холл, Скотт Коппола, Грегори С. О’Рурк, Шайна Райан, Рон Лэйвери, Том Кейс, Роберт Рут, Шон О’Бэннон, Джонни Гарделла
Сюжет фильма:
Дебра Грей — успешная бизнес леди — ищет квартирантку на время своего отъезда. По объявлению приходит Сюзан Лейн. Несмотря на то, что незнакомка работает в службе эскорта, Дебра берет ее к себе в дом.

Сразу после этого, в жизни Дебры Грей начинают происходить таинственные события — кто-то жестоко убивает ее знакомых. Все подозрения падают на нее, и она становится главной подозреваемой в двойном убийстве…

Дебра не убивала. Кто тогда? Ответ кроется в далеком прошлом.


Озвучивание:
  • Профессиональный, Двухголосный, Русский
  • Оригинал, Английский

Качество видео: DVDRip
Формат: AVI

Видео: XviD, 720x544 (4:3), 25.000 fps, ~1483 Кбит/сек
Аудио #1: AC-3, 384 Кбит/сек, 6 Каналов, 48.0 КГц
Аудио #2: AC-3, 384 Кбит/сек, 6 Каналов, 48.0 КГц



Общее
Полное имя : \Escort_1997.avi
Формат : AVI
Формат/Информация : Audio Video Interleave
Размер файла : 1,37 Гбайт
Продолжительность : 1 ч. 26 м.
Общий поток : 2260 Кбит/сек
Название фильма : Эскорт / The Escort (1997)
Режиссёр : klilogla
Правообладатель : binmovie.ru

Видео
Идентификатор : 0
Формат : MPEG-4 Visual
Профиль формата : Advanced Simple@L5
Параметр BVOP формата : 1
Параметр QPel формата : Нет
Параметр GMC формата : Без точки перехода
Параметр матрицы формата : Выборочная
Идентификатор кодека : XVID
Идентификатор кодека/Подсказка : XviD
Продолжительность : 1 ч. 26 м.
Битрейт : 1483 Кбит/сек
Ширина : 720 пикселей
Высота : 544 пикселя
Соотношение сторон : 4:3
Частота кадров : 25,000 кадров/сек
Цветовое пространство : YUV
Субдискретизация насыщенности : 4:2:0
Битовая глубина : 8 бит
Тип развёртки : Прогрессивная
Метод сжатия : С потерями
Бит/(Пиксели*Кадры) : 0.151
Размер потока : 919 Мбайт (66%)
Библиотека кодирования : XviD 1.2.1 (UTC 2008-12-04)

Аудио #1
Идентификатор : 1
Формат : AC-3
Формат/Информация : Audio Coding 3
Расширение режима : CM (complete main)
Параметр Endianness формата : Big
Идентификатор кодека : 2000
Продолжительность : 1 ч. 26 м.
Вид битрейта : Постоянный
Битрейт : 384 Кбит/сек
Каналы : 6 каналов
Расположение каналов : Front: L C R, Side: L R, LFE
Частота : 48,0 КГц
Битовая глубина : 16 бит
Метод сжатия : С потерями
Размер потока : 238 Мбайт (17%)
Выравнивание : Разделение по промежуткам
Продолжительность промежутка : 96 мс. (2,40 видеокадра)
Время предзагрузки промежутка : 96 мс.
Язык : Russian

Аудио #2
Идентификатор : 2
Формат : AC-3
Формат/Информация : Audio Coding 3
Расширение режима : CM (complete main)
Параметр Endianness формата : Big
Идентификатор кодека : 2000
Продолжительность : 1 ч. 26 м.
Вид битрейта : Постоянный
Битрейт : 384 Кбит/сек
Каналы : 6 каналов
Расположение каналов : Front: L C R, Side: L R, LFE
Частота : 48,0 КГц
Битовая глубина : 16 бит
Метод сжатия : С потерями
Размер потока : 238 Мбайт (17%)
Выравнивание : Разделение по промежуткам
Продолжительность промежутка : 96 мс. (2,40 видеокадра)
Время предзагрузки промежутка : 96 мс.
Язык : English


picpicpicpicpic
Для увеличения картинки щелкните мышкой по превью



Этот торрент недоступен для скачивания без регистрации, однако доступен по публичной magnet-ссылке (источники с публичных трекеров). Перед использованием ссылки прочтите, пожалуйста Пользовательское соглашение, а также как можно дольше оставайтесь на раздаче! Для того, чтобы скачать сам торрент-файл (который видит больше источников), а также для того, чтобы поблагодарить релизера, вам необходимо зарегистрироваться. Если регистрироваться лень - вы можете также попробовать скачать релиз по нашим партнерским ссылкам ниже.

[underverse.su].t48797.torrent
Трекер: Зарегистрирован   [ 28.01.2015 16:29 ]  

Статус: проверено (by Ведьмочка at 28.01.2015 16:29)
Поблагодарили: 1 человек
Тип торрента: публичный - доступные источники с открытых трекеров: 
Размер: 1,37 GB (занимает 0,31 DVDR, для записи нужно 1 болванка DVDR/RW)
 
 
Похожие темы
Форум Тема Автор Торрент Отв. Посл. сооб.
Зарубежное кино [DVDRip, Low-Res HDRip, и т.д.] Эскорт / The Escort (Уилл Слокомб) [2015 г., комедия, WEB-DLRip] DVO makkol
45 | 0

0 | 550

39

12.08.2015 22:28

Зарубежное кино [HDDVDRip / BDRip / WEB-DL / HDTV 1080/720р] Эскорт / The Escort (Уилл Слокомб) [2015 г., комедия, WEB-DL 720p] DVO + Original makkol
8 | 0

0 | 296

8

12.08.2015 22:46

Зарубежное кино [HDDVDRip / BDRip / WEB-DL / HDTV 1080/720р] Эскорт / The Escort (Уилл Слокомб) [2015 г., комедия, WEB-DL 1080p] DVO + Original makkol
23 | 0

0 | 611

26

12.08.2015 22:58


Яндекс.Метрика powered by Sphinx


В Н И М А Н И Е
Сайт не распространяет и не хранит электронные версии произведений, а лишь бесплатно и без коммерческой выгоды (не требуя взамен платы,
SMS и т.д.) предоставляет доступ к создаваемому пользователями каталогу ссылок на торрент-файлы, которые содержат только списки хеш-сумм.
Убедительная просьба с жалобами обращаться напрямую к пользователю, разместившему торрент файл.

Вверх