Loading...
Error

Косатка / Серии: 1-20 из 20 (Илья Максимов) [2014 г., Детектив, Криминал, HDTVRip]

Статистика раздачи
Размер:  10,75 GB   |    Зарегистрирован:  1 год 10 месяцев   |    Скачан:  23 раза
Сидов:  1  |  410 KB/s  ]   Личеров:  0  |  0 KB/s  ]

* - сиды/пиры с внешних источников

   
 
Автор Сообщение

Ведьмочка Пол:Жен

28-Янв-2015 15:43

Косатка


Страна: Россия
Год выпуска: 2014
Жанр: Детектив, Криминал
Продолжительность: ~00:45:00 (каждая серия)
Режиссёр: Илья Максимов
В ролях: Ольга Ломоносова, Владимир Епифанцев, Сергей Астахов, Сергей Марин, Игорь Шаройко, Владислав Шкляев, Сергей Багаев, Тимур Ефременков, Денис Дружинин, Павел Конек
Сюжет фильма:
В отделе криминальной полиции города Костромы появляется новый сотрудник — майор Ольга Косаткина. Все отделение взбудоражено с приходом Косаткиной. Но не только потому, что Косаткина красивая и умная женщина. В первую очередь все пытаются узнать, почему Косаткина променяла весьма успешную карьеру в Санкт-Петербурге на трудную и скучную работу в провинции. Сама Косаткина не спешит откровенничать, а все расспросы и догадки решительно пресекает. Несмотря на подозрительность, а иногда и просто враждебное отношение со стороны некоторых коллег, Косаткина проявляет себя в качестве крепкого профессионала, а её чувство справедливости и честность позволяют завоевать авторитет как у коллег, так и у жителей Костромы. Но, чем больше преступлений раскрывает команда Косатки, тем туже сплетается клубок непростых отношений между тремя операми и Ольгой. Матерые сыщики влюбляются в нее как мальчишки, и между ними начинается настоящее соперничество за сердце неприступной Косатки…

Качество видео: HDTVRip
Формат: AVI

Видео: XviD, 720x400 (16:9), 50.000 fps, ~1618 Кбит/сек
Аудио: MP3, 192 Кбит/сек, 2 Канала, 48.0 КГц

Rip by:



Общее
Полное имя : \Kosatka.2014HDTVRip.RG.Russkie.serialy.&.Files-x\Kosatka.(20.seriya).2014.HDTVRip.RG.Russkie.serialy.&.Files-x.avi
Формат : AVI
Формат/Информация : Audio Video Interleave
Размер файла : 550 Мбайт
Продолжительность : 43 м.
Общий поток : 1752 Кбит/сек
Программа кодирования : VirtualDubMod 1.5.10.3 | www.virtualdub-fr.org || (build 2550/release)
Библиотека кодирования : VirtualDubMod build 2550/release

Видео
Идентификатор : 0
Формат : MPEG-4 Visual
Профиль формата : Advanced Simple@L5
Параметр BVOP формата : 1
Параметр QPel формата : Нет
Параметр GMC формата : Без точки перехода
Параметр матрицы формата : Выборочная
Идентификатор кодека : XVID
Идентификатор кодека/Подсказка : XviD
Продолжительность : 43 м.
Битрейт : 1550 Кбит/сек
Ширина : 720 пикселей
Высота : 400 пикселей
Соотношение сторон : 16:9
Частота кадров : 25,000 кадров/сек
Цветовое пространство : YUV
Субдискретизация насыщенности : 4:2:0
Битовая глубина : 8 бит
Тип развёртки : Прогрессивная
Метод сжатия : С потерями
Бит/(Пиксели*Кадры) : 0.215
Размер потока : 487 Мбайт (88%)
Библиотека кодирования : XviD 73

Аудио
Идентификатор : 1
Формат : AC-3
Формат/Информация : Audio Coding 3
Расширение режима : CM (complete main)
Параметр Endianness формата : Big
Идентификатор кодека : 2000
Продолжительность : 43 м.
Вид битрейта : Постоянный
Битрейт : 192 Кбит/сек
Каналы : 2 канала
Расположение каналов : Front: L R
Частота : 48,0 КГц
Битовая глубина : 16 бит
Метод сжатия : С потерями
Размер потока : 60,3 Мбайт (11%)
Выравнивание : Разделение по промежуткам
Продолжительность промежутка : 40 мс. (1,00 видеокадр)
Время предзагрузки промежутка : 500 мс.


picpicpicpicpic
Для увеличения картинки щелкните мышкой по превью


Этот торрент недоступен для скачивания без регистрации, однако доступен по публичной magnet-ссылке (источники с публичных трекеров). Перед использованием ссылки прочтите, пожалуйста Пользовательское соглашение, а также как можно дольше оставайтесь на раздаче! Для того, чтобы скачать сам торрент-файл (который видит больше источников), а также для того, чтобы поблагодарить релизера, вам необходимо зарегистрироваться. Если регистрироваться лень - вы можете также попробовать скачать релиз по нашим партнерским ссылкам ниже.

[underverse.su].t48796.torrent
Трекер: Зарегистрирован   [ 30.01.2015 19:05 ]  

Статус: проверено (by Ведьмочка at 30.01.2015 19:12)
Поблагодарили: 3 человека
Тип торрента: публичный - доступные источники с открытых трекеров: 
Размер: 10,75 GB (занимает 2,46 DVDR, для записи нужно 3 болванки DVDR/RW)
 
 


Последний раз редактировалось: Ведьмочка (30.01.2015 19:12), всего редактировалось 5 раз(а)

Ведьмочка Пол:Жен

29-Янв-2015 14:20

Раздача обновлена. Добавлены 17 и 18 серии.

Ведьмочка Пол:Жен

30-Янв-2015 19:06

Раздача обновлена. Добавлены 19 и 20 серии.

papillon368 Пол:Муж

09-Фев-2015 10:01

Благодарю !!!http://underverse.su/viewtopic.php?t=48156#

Ведьмочка Пол:Жен

09-Фев-2015 10:09

papillon368 писал(а):

Приятного просмотра!!! :)

Яндекс.Метрика powered by Sphinx


В Н И М А Н И Е
Сайт не распространяет и не хранит электронные версии произведений, а лишь бесплатно и без коммерческой выгоды (не требуя взамен платы,
SMS и т.д.) предоставляет доступ к создаваемому пользователями каталогу ссылок на торрент-файлы, которые содержат только списки хеш-сумм.
Убедительная просьба с жалобами обращаться напрямую к пользователю, разместившему торрент файл.

Вверх