Loading...
Error

Ограбление по-американски / American Heist (Сарик Андреасян) [2014 г., триллер, криминал, драма, боевик, WEB-DLRip-AVC] Dub [чистый звук] + AVO (Яковлев) + Original (Eng)

Статистика раздачи
Размер:  1,44 GB   |    Зарегистрирован:  1 год 10 месяцев   |    Скачан:  32 раза

Полного источника не было: 4 дня

Сидов:  0  |  0 KB/s  ]   Личеров:  0  |  0 KB/s  ]

* - сиды/пиры с внешних источников

   
 
Автор Сообщение

90ytr90 

28-Янв-2015 10:40

Ограбление по-американски / American Heist


Год выхода: 2014
Страна: США, Россия
Жанр: триллер, криминал, драма, боевик
Продолжительность: 91 мин. / 01:31
Перевод: Дубляж (центр с Line), авторский А.Яковлев
Субтитры: отсутствуют

Режиссёр: Сарик Андреасян

В фильме снимались: Хейден Кристенсен, Эдриан Броуди, Джордана Брюстер, Эйкон, Тори Киттлз, Луис Да Силва мл., Лэнс Э. Николс, Джон МакКоннелл, Джо Крест, Аарон В. Уильямсон, Александр Гаврилин, Юрий Деркач, Ирина Киреева, Михаил Белякович, Илья Исаев

Описание: из-за тюремного прошлого он не может рассчитывать на хорошую работу и получает отказы в кредитовании своего бизнеса. Видя это, Френки предлагает Джеймсу «провести небольшое дельце». Он клянется, что это в последний раз и после ограбления банка в Новом Орлеане у них будут деньги, и они вернут свою жизнь, которую когда-то потеряли. В результате «небольшое дельце» станет одним из самых кровавых и драматических налетов в истории Америки...



Качество: WEB-DLRip-AVC
Формат: MKV
Видео кодек: H.264
Аудио кодек: AC3
Видео: AVC, 1024x426 (2.40:1), 25.000 fps, 1 495 Kbps (0.137 bit/pixel)
Аудио#1: AC-3, 48.0 KHz, 6 ch, 384 Kbps, CBR (Russian) - дубляж (центр с Line)
Аудио#2: AC-3, 48.0 KHz, 2 ch, 192 Kbps, CBR (Russian) - авторский А.Яковлев
Аудио#3: AC-3, 48.0 KHz, 2 ch, 160 Kbps, CBR (English) - оригинал
Сэмпл
Формат : Matroska
Версия формата : Version 2
Размер файла : 1,44 Гбайт
Продолжительность : 1 ч. 30 м.
Общий поток : 2276 Кбит/сек
Дата кодирования : UTC 2015-01-27 22:47:00
Программа кодирования : mkvmerge v5.3.0 ('I could have danced') built on Feb 9 2012 10:38:07
Библиотека кодирования : libebml v1.2.3 + libmatroska v1.3.0
Attachment : Yes

Видео
Идентификатор : 1
Формат : AVC
Формат/Информация : Advanced Video Codec
Профиль формата : High@L4.1
Параметр CABAC формата : Да
Параметр ReFrames формата : 10 кадров
Идентификатор кодека : V_MPEG4/ISO/AVC
Продолжительность : 1 ч. 30 м.
Битрейт : 1495 Кбит/сек
Ширина : 1024 пикселя
Высота : 426 пикселей
Соотношение сторон : 2,40:1
Режим частоты кадров : Постоянный
Частота кадров : 25,000 кадров/сек
Цветовое пространство : YUV
Субдискретизация насыщенности : 4:2:0
Битовая глубина : 8 бит
Тип развёртки : Прогрессивная
Бит/(Пиксели*Кадры) : 0.137
Размер потока : 972 Мбайт (66%)
Библиотека кодирования : x264 core 130 r2273 b3065e6
Настройки программы : cabac=1 / ref=10 / deblock=1:-3:-2 / analyse=0x3:0x133 / me=umh / subme=10 / psy=1 / psy_rd=1.00:0.05 / mixed_ref=1 / me_range=32 / chroma_me=1 / trellis=2 / 8x8dct=1 / cqm=0 / deadzone=21,11 / fast_pskip=0 / chroma_qp_offset=-3 / threads=12 / lookahead_threads=2 / sliced_threads=0 / nr=0 / decimate=0 / interlaced=0 / bluray_compat=0 / constrained_intra=0 / bframes=6 / b_pyramid=2 / b_adapt=2 / b_bias=0 / direct=3 / weightb=1 / open_gop=0 / weightp=2 / keyint=240 / keyint_min=23 / scenecut=40 / intra_refresh=0 / rc=crf / mbtree=0 / crf=19.0 / qcomp=0.60 / qpmin=0 / qpmax=69 / qpstep=4 / ip_ratio=1.40 / pb_ratio=1.30 / aq=1:1.00
Default : Да
Forced : Нет

Аудио #1
Идентификатор : 2
Формат : AC-3
Формат/Информация : Audio Coding 3
Расширение режима : CM (complete main)
Параметр Endianness формата : Big
Идентификатор кодека : A_AC3
Продолжительность : 1 ч. 30 м.
Вид битрейта : Постоянный
Битрейт : 384 Кбит/сек
Каналы : 6 каналов
Расположение каналов : Front: L C R, Side: L R, LFE
Частота : 48,0 КГц
Битовая глубина : 16 бит
Метод сжатия : С потерями
Размер потока : 250 Мбайт (17%)
Заголовок : Дубляж (центр Line)
Язык : Russian
Default : Да
Forced : Да

Аудио #2
Идентификатор : 3
Формат : AC-3
Формат/Информация : Audio Coding 3
Расширение режима : CM (complete main)
Параметр Endianness формата : Big
Идентификатор кодека : A_AC3
Продолжительность : 1 ч. 30 м.
Вид битрейта : Постоянный
Битрейт : 192 Кбит/сек
Каналы : 2 канала
Расположение каналов : Front: L R
Частота : 48,0 КГц
Битовая глубина : 16 бит
Метод сжатия : С потерями
Размер потока : 125 Мбайт (8%)
Заголовок : Авторский А.Яковлев
Язык : Russian
Default : Нет
Forced : Нет

Аудио #3
Идентификатор : 4
Формат : AC-3
Формат/Информация : Audio Coding 3
Расширение режима : CM (complete main)
Параметр Endianness формата : Big
Идентификатор кодека : A_AC3
Продолжительность : 1 ч. 30 м.
Вид битрейта : Постоянный
Битрейт : 160 Кбит/сек
Каналы : 2 канала
Расположение каналов : Front: L R
Частота : 48,0 КГц
Битовая глубина : 16 бит
Метод сжатия : С потерями
Размер потока : 104 Мбайт (7%)
Заголовок : оригинал
Язык : English
Default : Нет
Forced : Нет

Меню
00:00:00.000 : en:1
00:08:50.000 : en:2
00:16:26.000 : en:3
00:26:16.000 : en:4
00:32:38.000 : en:5
00:41:42.000 : en:6
00:48:12.000 : en:7

pic pic pic
Для увеличения картинки щелкните мышкой по превью

Этот торрент недоступен для скачивания без регистрации, однако доступен по публичной magnet-ссылке (источники с публичных трекеров). Перед использованием ссылки прочтите, пожалуйста Пользовательское соглашение, а также как можно дольше оставайтесь на раздаче! Для того, чтобы скачать сам торрент-файл (который видит больше источников), а также для того, чтобы поблагодарить релизера, вам необходимо зарегистрироваться. Если регистрироваться лень - вы можете также попробовать скачать релиз по нашим партнерским ссылкам ниже.

[underverse.su].t48781.torrent
Трекер: Зарегистрирован   [ 28.01.2015 10:40 ]  

Статус: T временная (by 90ytr90 at 28.01.2015 10:40)
Поблагодарили: пока никто не поблагодарил...
Тип торрента: публичный - доступные источники с открытых трекеров: 
Размер: 1,44 GB (занимает 1/3 DVDR, для записи нужно 1 болванка DVDR/RW)
 
 
Похожие темы
Форум Тема Автор Торрент Отв. Посл. сооб.
Зарубежное кино [DVDRip, Low-Res HDRip, и т.д.] Ограбление по-французски / Crime Spree (Брэд Мирман) [2003 г., боевик, комедия, криминал, DVDRip] LAMA
0 | 0

0 | 896

4

04.07.2011 15:31

Зарубежное кино [DVDRip, Low-Res HDRip, и т.д.] Ограбление / Lou Lap (Фаэ Ли / Ka Wing Lee) [2015 г., комедия, мистика, триллер, HDRip] DVO (DeadSno & den904) 90ytr90
187 | 4

0 | 211

4

19.11.2016 11:45

Зарубежное кино [DVDRip, Low-Res HDRip, и т.д.] Ограбление по-итальянски / The Italian Job (Ф. Гари Грэй) [2003 г., боевик, триллер, приключения, HDRip] Dub Greshnik
8 | 0

0 | 807

12

24.07.2012 09:47

Зарубежное кино [DVDRip, Low-Res HDRip, и т.д.] Ограбление по-бельгийски / Il etait une fois, une fois (Кристиан Маррет-Пальмар) [2012 г., комедия, HDRip] MVO RG NewCinema
0 | 0

2 | 815

45

04.10.2012 03:28

Зарубежное кино [DVDRip, Low-Res HDRip, и т.д.] Ограбление казино / Killing Them Softly (Эндрю Доминик) [2012 г., триллер, криминал, DVDRip] VO (SOLDLUCK) 90ytr90
2 | 0

0 | 1414

35

07.01.2013 10:14

Зарубежное кино [DVDRip, Low-Res HDRip, и т.д.] Ограбление казино / Killing Them Softly (Эндрю Доминик) [2012 г., триллер, драма, криминал, HDRip] Dub [лицензия] RG NewCinema
7 | 0

1 | 1411

94

15.01.2013 13:01

Зарубежное кино [DVDRip, Low-Res HDRip, и т.д.] Ограбление казино / Killing Them Softly (Эндрю Доминик) [2012 г., триллер, криминал, BDRip] Dub 90ytr90
7 | 0

0 | 406

10

15.01.2013 15:01

Зарубежное кино [DVDRip, Low-Res HDRip, и т.д.] Ограбление Казино / Killing Them Softly (Эндрю Доминик) [2012, Триллер, драма, криминал, HDRip-AVC] Dub + Sub Eng + Original Eng Garnett
9 | 0

0 | 1164

25

18.01.2013 18:40

Зарубежное кино [DVDRip, Low-Res HDRip, и т.д.] Ограбление / Краденные деньги / Loot (Ражниш Такур) [2011 г., боевик, драма, комедия, криминал, DVDRip] VO (zamez) 90ytr90
2 | 0

0 | 866

2

04.05.2013 20:23

Зарубежное кино [DVDRip, Low-Res HDRip, и т.д.] Ограбление по-американски / American Heist (Сарик Андреасян / Sarik Andreasyan) [2014 г., триллер, криминал, драма, боевик, WEB-DLRip] AVO (Яковлев) 90ytr90
16 | 0

0 | 917

25

24.01.2015 16:52


Яндекс.Метрика powered by Sphinx


В Н И М А Н И Е
Сайт не распространяет и не хранит электронные версии произведений, а лишь бесплатно и без коммерческой выгоды (не требуя взамен платы,
SMS и т.д.) предоставляет доступ к создаваемому пользователями каталогу ссылок на торрент-файлы, которые содержат только списки хеш-сумм.
Убедительная просьба с жалобами обращаться напрямую к пользователю, разместившему торрент файл.

Вверх