Loading...
Error

Что творят мужчины! 2 (Сарик Андреасян) [2015 г., Комедия, WEBRip]

Статистика раздачи
Размер:  1,37 GB   |    Зарегистрирован:  1 год 10 месяцев   |    Скачан:  68 раз

Полного источника не было: 1 день 1 час

Сидов:  0  |  0 KB/s  ]   Личеров:  0  |  0 KB/s  ]

* - сиды/пиры с внешних источников

   
 
Автор Сообщение

Ведьмочка Пол:Жен

27-Янв-2015 14:29

Что творят мужчины! 2
«Они вернутся в большой секс!»


Страна: Россия
Год выпуска: 2015
Жанр: Комедия
Продолжительность: 01:18:45
Режиссёр: Сарик Андреасян
В ролях: Таир Мамедов, Роман Юнусов, Дмитрий Кожома, Никита Джигурда, Настя Задорожная, Петр Винс, Вадим Цаллати, Наталья Рудова, Елена Борщева, Елена Беркова
Сюжет фильма:
России угрожает страшная опасность! Бывший сисадмин Секретного Военного Подразделения, уехавший в Америку, запустил вирус для взлома системы безопасности, что грозит всем нам страшными последствиями. Чтобы остановить программу, нужен пароль — слово, которое произносит бывшая подружка хакера, когда испытывает оргазм. Это всего лишь одно слово, но за последний год у злодея было десяток подружек, и с каждой был секс… и все они в Лос-Анджелесе! Спасти страну призваны главные специалисты по женщинам — Даниэль, Гоша и Виталик.

Качество видео: WEBRip
Формат: AVI

Видео: XviD, 720x304 (2.35:1), 25.000 fps, ~2091 Кбит/сек
Аудио: AC-3, 384 Кбит/сек, 2 Канала, 48.0 КГц



Общее
Полное имя : \Cht0.TvorYt.Muz1k1_2.2015.O.WEBRip.1400Mb.avi
Формат : AVI
Формат/Информация : Audio Video Interleave
Размер файла : 1,37 Гбайт
Продолжительность : 1 ч. 18 м.
Общий поток : 2485 Кбит/сек
Программа кодирования : VirtualDubMod 1.5.10.2 (build 2540/release)
Библиотека кодирования : VirtualDubMod build 2540/release

Видео
Идентификатор : 0
Формат : MPEG-4 Visual
Профиль формата : Advanced Simple@L5
Параметр BVOP формата : 2
Параметр QPel формата : Нет
Параметр GMC формата : Без точки перехода
Параметр матрицы формата : Default (MPEG)
Идентификатор кодека : XVID
Идентификатор кодека/Подсказка : XviD
Продолжительность : 1 ч. 18 м.
Битрейт : 2091 Кбит/сек
Ширина : 720 пикселей
Высота : 304 пикселя
Соотношение сторон : 2,35:1
Частота кадров : 25,000 кадров/сек
Цветовое пространство : YUV
Субдискретизация насыщенности : 4:2:0
Битовая глубина : 8 бит
Тип развёртки : Прогрессивная
Метод сжатия : С потерями
Бит/(Пиксели*Кадры) : 0.382
Размер потока : 1,15 Гбайт (84%)
Библиотека кодирования : XviD 1.2.1 (UTC 2008-12-04)

Аудио
Идентификатор : 1
Формат : AC-3
Формат/Информация : Audio Coding 3
Расширение режима : CM (complete main)
Параметр Endianness формата : Big
Идентификатор кодека : 2000
Продолжительность : 1 ч. 18 м.
Вид битрейта : Постоянный
Битрейт : 384 Кбит/сек
Каналы : 2 канала
Расположение каналов : Front: L R
Частота : 48,0 КГц
Битовая глубина : 16 бит
Метод сжатия : С потерями
Размер потока : 216 Мбайт (15%)
Выравнивание : Разделение по промежуткам
Продолжительность промежутка : 40 мс. (1,00 видеокадр)
Время предзагрузки промежутка : 500 мс.


picpicpicpicpic
Для увеличения картинки щелкните мышкой по превью



Этот торрент недоступен для скачивания без регистрации, однако доступен по публичной magnet-ссылке (источники с публичных трекеров). Перед использованием ссылки прочтите, пожалуйста Пользовательское соглашение, а также как можно дольше оставайтесь на раздаче! Для того, чтобы скачать сам торрент-файл (который видит больше источников), а также для того, чтобы поблагодарить релизера, вам необходимо зарегистрироваться. Если регистрироваться лень - вы можете также попробовать скачать релиз по нашим партнерским ссылкам ниже.

[underverse.su].t48749.torrent
Трекер: Зарегистрирован   [ 27.01.2015 14:29 ]  

Статус: проверено (by Ведьмочка at 27.01.2015 14:52)
Поблагодарили: 3 человека
Тип торрента: публичный - доступные источники с открытых трекеров: 
Размер: 1,37 GB (занимает 0,31 DVDR, для записи нужно 1 болванка DVDR/RW)
 
 
Похожие темы
Форум Тема Автор Торрент Отв. Посл. сооб.
Зарубежное кино [DVDRip, Low-Res HDRip, и т.д.] Что творят немецкие мужчины / Mann tut was Mann kann (Марк Ротемунд) [2012 г., драма, комедия, HDRip] VO (Артём Белоконский) 90ytr90
3 | 0

0 | 1411

27

24.07.2013 18:28

Зарубежное кино [DVDRip, Low-Res HDRip, и т.д.] Что творят немецкие мужчины / Mann tut was Mann kann (Марк Ротемунд) [2012 г., драма, комедия, HDRip] VO (Артём Белоконский) + Original 90ytr90
1 | 0

0 | 1033

11

26.07.2013 13:46

Зарубежное кино [DVDRip, Low-Res HDRip, и т.д.] Что творят немецкие мужчины / Mann tut was Mann kann (Марк Ротемунд) [2012 г., драма, комедия, HDRip] Паукан
1 | 0

0 | 1323

40

26.09.2013 06:46

Зарубежное кино [DVDRip, Low-Res HDRip, и т.д.] Что творят немецкие мужчины / Mann tut was Mann kann (Марк Ротемунд) [2012 г., драма, комедия, HDRip] MVO (чистый звук) + Original 90ytr90
4 | 0

0 | 350

5

26.09.2013 14:13

Наше кино [DVDRip, Low-Res HDRip, и т.д.] Что творят мужчины! (Сарик Андреасян) [2013 г., комедия, DVDRip] RG NewCinema
5 | 0

0 | 2793

204

20.03.2013 07:08

Наше кино [DVDRip, Low-Res HDRip, и т.д.] Что творят мужчины! (Сарик Андреасян) [2013 г., комедия, DVDRip] 90ytr90
1 | 0

0 | 1241

38

20.03.2013 14:51

Наше кино [DVDRip, Low-Res HDRip, и т.д.] Что творят мужчины! (Сарик Андреасян) [2013 г., комедия, BDRip] 90ytr90
9 | 2

0 | 2689

252

21.03.2013 16:12

T Наше кино [DVDRip, Low-Res HDRip, и т.д.] Что творят мужчины! 2 (Сарик Андреасян) [2015 г., комедия, WEB-DLRip] Original (iTunes) 90ytr90
1 | 0

0 | 633

35

18.02.2015 14:21

Наше кино [DVDRip, Low-Res HDRip, и т.д.] Что творят мужчины! 2 (Сарик Андреасян) [2015 г., комедия, DVDRip] 90ytr90
28 | 1

0 | 312

4

18.09.2016 18:38

Наше кино [DVDRip, Low-Res HDRip, и т.д.] Что творят мужчины! 2 (Сарик Андреасян) [2015 г., комедия, DVDRip] 90ytr90
75 | 0

0 | 317

10

18.09.2016 18:33


Яндекс.Метрика powered by Sphinx


В Н И М А Н И Е
Сайт не распространяет и не хранит электронные версии произведений, а лишь бесплатно и без коммерческой выгоды (не требуя взамен платы,
SMS и т.д.) предоставляет доступ к создаваемому пользователями каталогу ссылок на торрент-файлы, которые содержат только списки хеш-сумм.
Убедительная просьба с жалобами обращаться напрямую к пользователю, разместившему торрент файл.

Вверх