Loading...
Error

Безумные / The demented (Кристофер Рузвельт) [2013 г., Ужасы, Фантастика, HDRip-AVC] MVO (RUS, Online Movies) + DVO (RUS, Влад & Снежинка) + Original (ENG) + Subs (RUS, ENG)

Статистика раздачи
Размер:  2,05 GB   |    Зарегистрирован:  1 год 10 месяцев   |    Скачан:  4 раза

Полного источника не было: 1 год 9 месяцев

Сидов:  0  |  0 KB/s  ]   Личеров:  0  |  0 KB/s  ]

* - сиды/пиры с внешних источников

   
 
Автор Сообщение

Ведьмочка Пол:Жен

27-Янв-2015 03:15

Безумные / The demented


Страна: США
Год выпуска: 2013
Жанр: Ужасы, Фантастика
Продолжительность: 01:32:05
Режиссёр: Кристофер Рузвельт
В ролях: Кайла Юэлл, Ричард Конке, Эшли Брайн, Бриттни Элгер, Сара Батлер. Майкл Уэлш, Крис Эшворт, Джесси Брукс, Эшли Диджон, Эммануэль Кинг
Сюжет фильма:
Шестеро друзей-студентов собираются вместе на выходные, где им приходится бороться за свою жизнь после террористической атаки, превратившей местных жителей в яростных зомби.

Озвучивание:
  • Профессиональный, Многогоглосный, Русский [Online Movies]
  • Любительский, Двухголосный, Русский [Влад & Снежинка]
  • Оригинал, Английский

Качество видео: HDRip-AVC
Формат: MKV

Видео: AVC, 1024x576 (16:9), 23.976 fps, ~2349 Кбит/сек
Аудио #1: AC-3, 192 Кбит/сек, 2 Канала, 48.0 КГц
Аудио #2: AC-3, 192 Кбит/сек, 2 Канала, 48.0 КГц
Аудио #3: AC-3, 448 Кбит/сек, 6 Каналов, 48.0 КГц

Субтитры #1: UTF-8 [Русские, Полные]
Субтитры #2: UTF-8 [Английские, Полные]



Общее
Уникальный идентификатор : 204652483637230532975526065099163757155 (0x99F6A277F6F6D34FAA309F137CBEEA63)
Полное имя : \Bezumnye.2013.x264.BDRip.(AVC).mkv
Формат : Matroska
Версия формата : Version 1
Размер файла : 2,05 Гбайт
Продолжительность : 1 ч. 32 м.
Общий поток : 3182 Кбит/сек
Дата кодирования : UTC 2015-01-26 18:11:46
Программа кодирования : mkvmerge v2.1.0 ('Another Place To Fall') built on Aug 19 2007 13:40:07
Библиотека кодирования : libebml v0.7.7 + libmatroska v0.8.1

Видео
Идентификатор : 1
Формат : AVC
Формат/Информация : Advanced Video Codec
Профиль формата : High@L4.1
Параметр CABAC формата : Да
Параметр ReFrames формата : 8 кадров
Идентификатор кодека : V_MPEG4/ISO/AVC
Продолжительность : 1 ч. 32 м.
Битрейт : 2349 Кбит/сек
Ширина : 1024 пикселя
Высота : 576 пикселей
Соотношение сторон : 16:9
Режим частоты кадров : Постоянный
Частота кадров : 23,976 кадра/сек
Цветовое пространство : YUV
Субдискретизация насыщенности : 4:2:0
Битовая глубина : 8 бит
Тип развёртки : Прогрессивная
Бит/(Пиксели*Кадры) : 0.166
Размер потока : 1,47 Гбайт (72%)
Библиотека кодирования : x264 core 125 r2200 999b753
Настройки программы : cabac=1 / ref=8 / deblock=1:-3:-3 / analyse=0x3:0x113 / me=umh / subme=9 / psy=1 / psy_rd=1.00:0.00 / mixed_ref=1 / me_range=32 / chroma_me=1 / trellis=2 / 8x8dct=1 / cqm=0 / deadzone=21,11 / fast_pskip=0 / chroma_qp_offset=-2 / threads=6 / lookahead_threads=1 / sliced_threads=0 / nr=0 / decimate=0 / interlaced=0 / bluray_compat=0 / constrained_intra=0 / bframes=8 / b_pyramid=2 / b_adapt=2 / b_bias=0 / direct=3 / weightb=1 / open_gop=0 / weightp=2 / keyint=240 / keyint_min=23 / scenecut=40 / intra_refresh=0 / rc=2pass / mbtree=0 / bitrate=2349 / ratetol=1.0 / qcomp=0.60 / qpmin=0 / qpmax=69 / qpstep=4 / cplxblur=20.0 / qblur=0.5 / ip_ratio=1.40 / pb_ratio=1.30 / aq=1:1.10
Язык : English
Default : Да
Forced : Нет

Аудио #1
Идентификатор : 2
Формат : AC-3
Формат/Информация : Audio Coding 3
Расширение режима : CM (complete main)
Параметр Endianness формата : Big
Идентификатор кодека : A_AC3
Продолжительность : 1 ч. 32 м.
Вид битрейта : Постоянный
Битрейт : 192 Кбит/сек
Каналы : 2 канала
Расположение каналов : Front: L R
Частота : 48,0 КГц
Битовая глубина : 16 бит
Метод сжатия : С потерями
Размер потока : 126 Мбайт (6%)
Заголовок : Профессиональный многоголосый (online movies)
Язык : Russian
Default : Да
Forced : Нет

Аудио #2
Идентификатор : 3
Формат : AC-3
Формат/Информация : Audio Coding 3
Расширение режима : CM (complete main)
Параметр Endianness формата : Big
Идентификатор кодека : A_AC3
Продолжительность : 1 ч. 32 м.
Вид битрейта : Постоянный
Битрейт : 192 Кбит/сек
Каналы : 2 канала
Расположение каналов : Front: L R
Частота : 48,0 КГц
Битовая глубина : 16 бит
Метод сжатия : С потерями
Размер потока : 126 Мбайт (6%)
Заголовок : Любительский двухголосый (DeadSno & den904)
Язык : Russian
Default : Нет
Forced : Нет

Аудио #3
Идентификатор : 4
Формат : AC-3
Формат/Информация : Audio Coding 3
Расширение режима : CM (complete main)
Параметр Endianness формата : Big
Идентификатор кодека : A_AC3
Продолжительность : 1 ч. 32 м.
Вид битрейта : Постоянный
Битрейт : 448 Кбит/сек
Каналы : 6 каналов
Расположение каналов : Front: L C R, Side: L R, LFE
Частота : 48,0 КГц
Битовая глубина : 16 бит
Метод сжатия : С потерями
Размер потока : 295 Мбайт (14%)
Заголовок : Оригинал
Язык : English
Default : Нет
Forced : Нет

Текст #1
Идентификатор : 5
Формат : UTF-8
Идентификатор кодека : S_TEXT/UTF8
Идентификатор кодека/Информация : UTF-8 Plain Text
Заголовок : Русские
Язык : Russian
Default : Да
Forced : Нет

Текст #2
Идентификатор : 6
Формат : UTF-8
Идентификатор кодека : S_TEXT/UTF8
Идентификатор кодека/Информация : UTF-8 Plain Text
Заголовок : Английские
Язык : English
Default : Нет
Forced : Нет

Меню
00:00:00.000 : en:Chapter 01
00:02:42.329 : en:Chapter 02
00:10:50.316 : en:Chapter 03
00:18:16.637 : en:Chapter 04
00:27:06.166 : en:Chapter 05
00:39:29.784 : en:Chapter 06
00:51:45.185 : en:Chapter 07
00:58:45.522 : en:Chapter 08
01:05:18.164 : en:Chapter 09
01:15:30.901 : en:Chapter 10
01:19:56.250 : en:Chapter 11
01:29:18.937 : en:Chapter 12


picpicpicpicpic
Для увеличения картинки щелкните мышкой по превью



Этот торрент недоступен для скачивания без регистрации, однако доступен по публичной magnet-ссылке (источники с публичных трекеров). Перед использованием ссылки прочтите, пожалуйста Пользовательское соглашение, а также как можно дольше оставайтесь на раздаче! Для того, чтобы скачать сам торрент-файл (который видит больше источников), а также для того, чтобы поблагодарить релизера, вам необходимо зарегистрироваться. Если регистрироваться лень - вы можете также попробовать скачать релиз по нашим партнерским ссылкам ниже.

[underverse.su].t48722.torrent
Трекер: Зарегистрирован   [ 27.01.2015 03:15 ]  

Статус: проверено (by Ведьмочка at 27.01.2015 03:16)
Поблагодарили: пока никто не поблагодарил...
Тип торрента: публичный - доступные источники с открытых трекеров: 
Размер: 2,05 GB (занимает 0,47 DVDR, для записи нужно 1 болванка DVDR/RW)
 
 
Похожие темы
Форум Тема Автор Торрент Отв. Посл. сооб.
Зарубежное кино [DVDRip, Low-Res HDRip, и т.д.] Безумные / The Demented (Кристофер Рузвельт) [2013 г., ужасы, триллер, драма, HDRip] DVO (DeadSno & den904) + Original 90ytr90
0 | 0

0 | 652

20

09.08.2013 14:34

Зарубежное кино [HDDVDRip / BDRip / WEB-DL / HDTV 1080/720р] Безумные / The demented (Кристофер Рузвельт) [2013 г., Ужасы, Фантастика, BDRip 720p] MVO (RUS, Online Movies) + Original (ENG) + Subs (ENG) Ведьмочка
3 | 0

0 | 476

3

27.01.2015 03:37


Яндекс.Метрика powered by Sphinx


В Н И М А Н И Е
Сайт не распространяет и не хранит электронные версии произведений, а лишь бесплатно и без коммерческой выгоды (не требуя взамен платы,
SMS и т.д.) предоставляет доступ к создаваемому пользователями каталогу ссылок на торрент-файлы, которые содержат только списки хеш-сумм.
Убедительная просьба с жалобами обращаться напрямую к пользователю, разместившему торрент файл.

Вверх