Loading...
Error

Джон Уик / John Wick (Дэвид Лейтч, Чад Стахелски) [2014 г., Боевик, Триллер, BDRip-AVC] Dub (RUS) + Original (ENG) + Subs (RUS, ENG, UKR)

Статистика раздачи
Размер:  2,18 GB   |    Зарегистрирован:  1 год 10 месяцев   |    Скачан:  19 раз

Полного источника не было: 14 дней

Сидов:  0  |  0 KB/s  ]   Личеров:  0  |  0 KB/s  ]

* - сиды/пиры с внешних источников

   
 
Автор Сообщение

Ведьмочка Пол:Жен

26-Янв-2015 15:36

Джон Уик / John Wick
«Его лучше не трогать»


Страна: Китай , Канада , США
Год выпуска: 2014
Жанр: Боевик, Триллер
Продолжительность: 01:41:12
Режиссёр: Дэвид Лейтч, Чад Стахелски
В ролях: Киану Ривз, Микаэл Нюквист, Элфи Оуэн-Аллен, Уиллем Дефо, Дин Уинтерс, Эдрианн Палики, Омер Барнеа, Тоби Мур, Дэниэл Бернхард, Бриджет Мойнэхэн
Сюжет фильма:
Джон Уик — бывший наемный убийца — ведет размеренную жизнь, когда преступник крадет его любимый Mustang 1969 года и попутно убивает собаку Дейзи, единственное живое напоминание об умершей жене. Жажда мести пробуждает в нем, казалось, утерянную хватку…

Озвучивание:
  • Дублированный, Русский
  • Оригинал, Английский

Качество видео: BDRip-AVC
Формат: MKV

Видео: AVC, 1080x450 (2.40:1), 23.976 fps, ~2187 Кбит/сек
Аудио #1: AC-3, 448 Кбит/сек, 6 Каналов, 48.0 КГц
Аудио #2: AC-3, 448 Кбит/сек, 6 Каналов, 48.0 КГц

Субтитры #1: UTF-8 [Русские, Форсированные]
Субтитры #2: UTF-8 [Русские, Полные, А. Матвеев 18+]
Субтитры #3: UTF-8 [Украинские, Полные]
Субтитры #4: UTF-8 [Английские, Полные]
Субтитры #5: UTF-8 [Английские, SDH]

Rip by:



Общее
Уникальный идентификатор : 224063874165998484740598776487500657726 (0xA89121E9A17323B9A5B6564B6EE5343E)
Полное имя : \Dzhon.Uik.2014.DUAL.BDRip.x264.-HELLYWOOD.mkv
Формат : Matroska
Версия формата : Version 4 / Version 2
Размер файла : 2,18 Гбайт
Продолжительность : 1 ч. 41 м.
Общий поток : 3085 Кбит/сек
Название фильма : John Wick (2014) - HELLYWOOD
Дата кодирования : UTC 2015-01-26 15:04:56
Программа кодирования : mkvmerge v5.9.0 ('On The Loose') built on Dec 15 2012 16:39:58
Библиотека кодирования : libebml v1.3.0 + libmatroska v1.4.0

Видео
Идентификатор : 1
Формат : AVC
Формат/Информация : Advanced Video Codec
Профиль формата : High@L4.1
Параметр CABAC формата : Да
Параметр ReFrames формата : 10 кадров
Идентификатор кодека : V_MPEG4/ISO/AVC
Продолжительность : 1 ч. 41 м.
Битрейт : 2187 Кбит/сек
Ширина : 1080 пикселей
Высота : 450 пикселей
Соотношение сторон : 2,40:1
Режим частоты кадров : Постоянный
Частота кадров : 23,976 кадра/сек
Цветовое пространство : YUV
Субдискретизация насыщенности : 4:2:0
Битовая глубина : 8 бит
Тип развёртки : Прогрессивная
Бит/(Пиксели*Кадры) : 0.188
Размер потока : 1,50 Гбайт (69%)
Заголовок : potroks
Библиотека кодирования : x264 core 130 r2273 b3065e6
Настройки программы : cabac=1 / ref=10 / deblock=1:-2:-2 / analyse=0x3:0x133 / me=umh / subme=11 / psy=1 / psy_rd=1.02:0.05 / mixed_ref=1 / me_range=48 / chroma_me=1 / trellis=2 / 8x8dct=1 / cqm=0 / deadzone=21,11 / fast_pskip=0 / chroma_qp_offset=-3 / threads=9 / lookahead_threads=7 / sliced_threads=0 / nr=0 / decimate=0 / interlaced=0 / bluray_compat=0 / constrained_intra=0 / bframes=11 / b_pyramid=2 / b_adapt=2 / b_bias=0 / direct=3 / weightb=1 / open_gop=0 / weightp=2 / keyint=250 / keyint_min=23 / scenecut=40 / intra_refresh=0 / rc_lookahead=60 / rc=2pass / mbtree=0 / bitrate=2187 / ratetol=1.0 / qcomp=0.71 / qpmin=0 / qpmax=69 / qpstep=4 / cplxblur=20.0 / qblur=0.5 / vbv_maxrate=50000 / vbv_bufsize=62500 / nal_hrd=none / ip_ratio=1.35 / pb_ratio=1.25 / aq=1:0.80
Язык : English
Default : Да
Forced : Нет

Аудио #1
Идентификатор : 2
Формат : AC-3
Формат/Информация : Audio Coding 3
Расширение режима : CM (complete main)
Параметр Endianness формата : Big
Идентификатор кодека : A_AC3
Продолжительность : 1 ч. 41 м.
Вид битрейта : Постоянный
Битрейт : 448 Кбит/сек
Каналы : 6 каналов
Расположение каналов : Front: L C R, Side: L R, LFE
Частота : 48,0 КГц
Битовая глубина : 16 бит
Метод сжатия : С потерями
Размер потока : 324 Мбайт (15%)
Заголовок : Dub | DD 5.1 @ 448 kbps
Язык : Russian
Default : Да
Forced : Нет

Аудио #2
Идентификатор : 3
Формат : AC-3
Формат/Информация : Audio Coding 3
Расширение режима : CM (complete main)
Параметр Endianness формата : Big
Идентификатор кодека : A_AC3
Продолжительность : 1 ч. 41 м.
Вид битрейта : Постоянный
Битрейт : 448 Кбит/сек
Каналы : 6 каналов
Расположение каналов : Front: L C R, Side: L R, LFE
Частота : 48,0 КГц
Битовая глубина : 16 бит
Метод сжатия : С потерями
Размер потока : 324 Мбайт (15%)
Заголовок : Original | DD 5.1 @ 448 kbps
Язык : English
Default : Нет
Forced : Нет

Текст #1
Идентификатор : 4
Формат : UTF-8
Идентификатор кодека : S_TEXT/UTF8
Идентификатор кодека/Информация : UTF-8 Plain Text
Заголовок : форс.
Язык : Russian
Default : Да
Forced : Нет

Текст #2
Идентификатор : 5
Формат : UTF-8
Идентификатор кодека : S_TEXT/UTF8
Идентификатор кодека/Информация : UTF-8 Plain Text
Заголовок : А.Матвеев [без цензуры]
Язык : Russian
Default : Нет
Forced : Нет

Текст #3
Идентификатор : 6
Формат : UTF-8
Идентификатор кодека : S_TEXT/UTF8
Идентификатор кодека/Информация : UTF-8 Plain Text
Язык : Ukrainian
Default : Нет
Forced : Нет

Текст #4
Идентификатор : 7
Формат : UTF-8
Идентификатор кодека : S_TEXT/UTF8
Идентификатор кодека/Информация : UTF-8 Plain Text
Заголовок : Full
Язык : English
Default : Нет
Forced : Нет

Текст #5
Идентификатор : 8
Формат : UTF-8
Идентификатор кодека : S_TEXT/UTF8
Идентификатор кодека/Информация : UTF-8 Plain Text
Заголовок : SDH
Язык : English
Default : Нет
Forced : Нет

Меню
00:00:00.000 : :Chapter 01
00:04:57.505 : :Chapter 03
00:12:21.865 : :Chapter 05
00:17:07.734 : :Chapter 07
00:26:25.166 : :Chapter 09
00:32:40.249 : :Chapter 11
00:36:24.598 : :Chapter 13
00:42:16.033 : :Chapter 15
00:45:33.272 : :Chapter 17
00:55:02.507 : :Chapter 19
00:59:27.563 : :Chapter 21
01:06:13.427 : :Chapter 23
01:14:15.909 : :Chapter 25
01:19:13.039 : :Chapter 27
01:27:29.786 : :Chapter 29
01:32:24.789 : :Chapter 31
01:41:12.649 : :Chapter 32


picpicpicpicpic
Для увеличения картинки щелкните мышкой по превью



Этот торрент недоступен для скачивания без регистрации, однако доступен по публичной magnet-ссылке (источники с публичных трекеров). Перед использованием ссылки прочтите, пожалуйста Пользовательское соглашение, а также как можно дольше оставайтесь на раздаче! Для того, чтобы скачать сам торрент-файл (который видит больше источников), а также для того, чтобы поблагодарить релизера, вам необходимо зарегистрироваться. Если регистрироваться лень - вы можете также попробовать скачать релиз по нашим партнерским ссылкам ниже.

[underverse.su].t48715.torrent
Трекер: Зарегистрирован   [ 26.01.2015 18:57 ]  

Статус: проверено (by Ведьмочка at 26.01.2015 18:57)
Поблагодарили: пока никто не поблагодарил...
Тип торрента: публичный - доступные источники с открытых трекеров: 
Размер: 2,18 GB (занимает 1/2 DVDR, для записи нужно 1 болванка DVDR/RW)
 
 
Похожие темы
Форум Тема Автор Торрент Отв. Посл. сооб.
T Зарубежное кино [DVDRip, Low-Res HDRip, и т.д.] Джон Уик / John Wick (Дэвид Лейтч / Chad Stahelski, Чад Стахелски, / David Leitch) [2014 г., боевик, триллер, WEB-DLRip] DVO ("Paradox") 90ytr90
26 | 0

0 | 622

47

13.01.2015 19:17

Зарубежное кино [DVDRip, Low-Res HDRip, и т.д.] Джон Уик / John Wick (Чад Стахелски / Chad Stahelski, Дэвид Лейтч / David Leitch) [2014 г., боевик, триллер, WEB-DLRip] AVO (Есарев) 90ytr90
16 | 0

0 | 693

58

15.01.2015 20:11

Зарубежное кино [DVDRip, Low-Res HDRip, и т.д.] Джон Уик / John Wick (Чад Стахелски / Chad Stahelski, Дэвид Лейтч / David Leitch) [2014 г., боевик, триллер, BDRip] 2xAVO (Есарев, Матвеев) 90ytr90
0 | 0

0 | 539

4

25.01.2015 21:03

Зарубежное кино [DVDRip, Low-Res HDRip, и т.д.] Джон Уик / John Wick (Чад Стахелски / Chad Stahelski, Дэвид Лейтч / David Leitch) [2014 г., боевик, триллер, BDRip-AVC] Dub + Subs 90ytr90
26 | 2

0 | 606

41

26.01.2015 19:51

Зарубежное кино [DVDRip, Low-Res HDRip, и т.д.] Джон Уик / John Wick (Чад Стахелски / Chad Stahelski, Дэвид Лейтч / David Leitch) [2014 г., боевик, триллер, HDRip] Dub 90ytr90
381 | 9

0 | 716

42

09.02.2015 18:27

Зарубежное кино [DVDRip, Low-Res HDRip, и т.д.] Джон Уик / John Wick (Чад Стахелски / Chad Stahelski, Дэвид Лейтч / David Leitch) [2014 г., боевик, триллер, BDRip-AVC] Dub + 3xAVO (Живов, Есарев, Матвеев) + Original (Eng) + Sub (Rus, Eng) 90ytr90
16 | 0

0 | 634

12

21.02.2015 15:13

Зарубежное кино [DVDRip, Low-Res HDRip, и т.д.] Джон Уик / John Wick (Чад Стахелски / Chad Stahelski, Дэвид Лейтч / David Leitch) [2014 г., боевик, триллер, HDRip] Dub 90ytr90
4 | 0

0 | 575

10

21.02.2015 15:35

Зарубежное кино [DVDRip, Low-Res HDRip, и т.д.] Джон Уик / John Wick (Чад Стахелски / Chad Stahelski, Дэвид Лейтч / David Leitch) [2014 г., боевик, триллер, BDRip-AVC] AVO (Живов) + Original (Eng) + Subs 90ytr90
109 | 3

0 | 689

5

23.02.2015 20:00

Зарубежное кино [DVDRip, Low-Res HDRip, и т.д.] Джон Уик / John Wick (Чад Стахелски / Chad Stahelski, Дэвид Лейтч / David Leitch) [2014 г., боевик, триллер, HDRip] AVO (Живов) 90ytr90
6 | 0

0 | 561

16

23.03.2015 17:19

T Зарубежное кино [HDDVDRip / BDRip / WEB-DL / HDTV 1080/720р] Джон Уик / John Wick (Дэвид Лейтч / Chad Stahelski, Чад Стахелски, / David Leitch) [2014 г., боевик, триллер, WEB-DL 720p] DVO ("Paradox") 90ytr90
0 | 0

0 | 753

38

13.01.2015 19:25



Последний раз редактировалось: Ведьмочка (27.01.2015 03:38), всего редактировалось 1 раз

Ведьмочка Пол:Жен

26-Янв-2015 18:58

Торрент-файл перезалит!

Яндекс.Метрика powered by Sphinx


В Н И М А Н И Е
Сайт не распространяет и не хранит электронные версии произведений, а лишь бесплатно и без коммерческой выгоды (не требуя взамен платы,
SMS и т.д.) предоставляет доступ к создаваемому пользователями каталогу ссылок на торрент-файлы, которые содержат только списки хеш-сумм.
Убедительная просьба с жалобами обращаться напрямую к пользователю, разместившему торрент файл.

Вверх