Loading...
Error

Логово зверя / Прибежище / Haunt (Мак Картер) [2013 г., Ужасы, Детектив, HDRip] Dub (iTunes Russia) + Original (ENG)

Статистика раздачи
Размер:  1,37 GB   |    Зарегистрирован:  1 год 10 месяцев   |    Скачан:  12 раз

Полного источника не было: 1 год 1 месяц

Сидов:  0  |  0 KB/s  ]   Личеров:  0  |  0 KB/s  ]

* - сиды/пиры с внешних источников

   
 
Автор Сообщение

Ведьмочка Пол:Жен

26-Янв-2015 12:11

Логово зверя / Прибежище / Haunt


Страна: США
Год выпуска: 2013
Жанр: Ужасы, Детектив
Продолжительность: 01:23:37
Режиссёр: Мак Картер
В ролях: Харрисон Гилбертсон, Лиана Либерато, Джеки Уивер, Айони Скай, Даниэль Чачран, Карл Хадра, Себастьян Майкл Барр, Брук Келли, Брайан Уиммер, Элла Харрис
Сюжет фильма:
Семья 18-ти летнего Эвана переезжает в новый дом, прошлые владельцы которого погибли при странных обстоятельствах. Единственная выжившая хозяйка дома — Джанет отказывается раскрывать тайну трагической гибели родных. Отправившись как-то раз ночью на прогулку, Эван встречает прекрасную девушку Саманту. Подростки начинают тесно общаться. Их общий интерес — таинственный дом семьи Ашер. Сэм рассказывает Эвану о том, что случилось с прошлыми владельцами дома. Герои решают выйти с призраками на прямой контакт. Но становится очевидно: не все тайны стоит разгадывать, ибо за ними кроется нечто совершенно ужасающее…

Озвучивание:
  • Дублированный, Русский [iTunes Russia]
  • Оригинал, Английский

Качество видео: HDRip
Формат: AVI

Видео: XviD, 720x304 (2.35:1), 24.000 fps, ~1625 Кбит/сек
Аудио #1: AC-3, 384 Кбит/сек, 6 Каналов, 48.0 КГц
Аудио #2: AC-3, 320 Кбит/сек, 6 Каналов, 48.0 КГц



Общее
Полное имя : \Logovo.Zverya.2013.D.HDRip.1400Mb.avi
Формат : AVI
Формат/Информация : Audio Video Interleave
Размер файла : 1,37 Гбайт
Продолжительность : 1 ч. 23 м.
Общий поток : 2343 Кбит/сек
Название фильма : Haunt.2013.D.HDRip.UNIONGANG.TV
Режиссёр : TimeMashine&Kolbas
Программа кодирования : VirtualDubMod 1.5.10.2 (build 2540/release)
Библиотека кодирования : VirtualDubMod build 2540/release
Правообладатель : UNIONGANG&RUSTORRENTS

Видео
Идентификатор : 0
Формат : MPEG-4 Visual
Профиль формата : Advanced Simple@L5
Параметр BVOP формата : 3
Параметр QPel формата : Нет
Параметр GMC формата : Без точки перехода
Параметр матрицы формата : Выборочная
Идентификатор кодека : XVID
Идентификатор кодека/Подсказка : XviD
Продолжительность : 1 ч. 23 м.
Битрейт : 1625 Кбит/сек
Ширина : 720 пикселей
Высота : 304 пикселя
Соотношение сторон : 2,35:1
Частота кадров : 24,000 кадра/сек
Цветовое пространство : YUV
Субдискретизация насыщенности : 4:2:0
Битовая глубина : 8 бит
Тип развёртки : Прогрессивная
Метод сжатия : С потерями
Бит/(Пиксели*Кадры) : 0.309
Размер потока : 972 Мбайт (69%)
Библиотека кодирования : XviD 1.2.1 (UTC 2008-12-04)

Аудио #1
Идентификатор : 1
Формат : AC-3
Формат/Информация : Audio Coding 3
Расширение режима : CM (complete main)
Параметр Endianness формата : Big
Идентификатор кодека : 2000
Продолжительность : 1 ч. 23 м.
Вид битрейта : Постоянный
Битрейт : 384 Кбит/сек
Каналы : 6 каналов
Расположение каналов : Front: L C R, Side: L R, LFE
Частота : 48,0 КГц
Битовая глубина : 16 бит
Метод сжатия : С потерями
Размер потока : 230 Мбайт (16%)
Выравнивание : Разделение по промежуткам
Продолжительность промежутка : 42 мс. (1,00 видеокадр)
Время предзагрузки промежутка : 500 мс.

Аудио #2
Идентификатор : 2
Формат : AC-3
Формат/Информация : Audio Coding 3
Расширение режима : CM (complete main)
Параметр Endianness формата : Big
Идентификатор кодека : 2000
Продолжительность : 1 ч. 23 м.
Вид битрейта : Постоянный
Битрейт : 320 Кбит/сек
Каналы : 6 каналов
Расположение каналов : Front: L C R, Side: L R, LFE
Частота : 48,0 КГц
Битовая глубина : 16 бит
Метод сжатия : С потерями
Размер потока : 191 Мбайт (14%)
Выравнивание : Разделение по промежуткам
Продолжительность промежутка : 42 мс. (1,00 видеокадр)
Время предзагрузки промежутка : 500 мс.


picpicpicpicpic
Для увеличения картинки щелкните мышкой по превью



Этот торрент недоступен для скачивания без регистрации, однако доступен по публичной magnet-ссылке (источники с публичных трекеров). Перед использованием ссылки прочтите, пожалуйста Пользовательское соглашение, а также как можно дольше оставайтесь на раздаче! Для того, чтобы скачать сам торрент-файл (который видит больше источников), а также для того, чтобы поблагодарить релизера, вам необходимо зарегистрироваться. Если регистрироваться лень - вы можете также попробовать скачать релиз по нашим партнерским ссылкам ниже.

[underverse.su].t48690.torrent
Трекер: Зарегистрирован   [ 26.01.2015 12:11 ]  

Статус: T временная (by Ведьмочка at 26.01.2015 12:11)
Поблагодарили: пока никто не поблагодарил...
Тип торрента: публичный - доступные источники с открытых трекеров: 
Размер: 1,37 GB (занимает 0,31 DVDR, для записи нужно 1 болванка DVDR/RW)
 
 
Похожие темы
Форум Тема Автор Торрент Отв. Посл. сооб.
T Зарубежное кино [DVDRip, Low-Res HDRip, и т.д.] Логово зверя / Haunt (Мак Картер) [2013 г., ужасы, детектив, HDRip-AVC] Dub [line] Паукан
73 | 1

0 | 593

18

23.12.2014 14:14

T Зарубежное кино [DVDRip, Low-Res HDRip, и т.д.] Логово зверя / Haunt (Мак Картер / Mac Carter) [2013 г., ужасы, детектив, HDRip] Dub (iTunes) 90ytr90
20 | 0

0 | 432

5

16.02.2015 18:03

T Зарубежное кино [HDDVDRip / BDRip / WEB-DL / HDTV 1080/720р] Логово зверя / Haunt (Мак Картер / Mac Carter) [2013 г., ужасы, детектив, BDRip 1080p] Dub (iTunes) + Original (Eng) + Sub (Rus, Eng) 90ytr90
9 | 1

0 | 439

5

16.02.2015 18:09


Яндекс.Метрика powered by Sphinx


В Н И М А Н И Е
Сайт не распространяет и не хранит электронные версии произведений, а лишь бесплатно и без коммерческой выгоды (не требуя взамен платы,
SMS и т.д.) предоставляет доступ к создаваемому пользователями каталогу ссылок на торрент-файлы, которые содержат только списки хеш-сумм.
Убедительная просьба с жалобами обращаться напрямую к пользователю, разместившему торрент файл.

Вверх