Loading...
Error

Эверли / Everly (Джо Линч) [2014 г., Боевик, Триллер, WEB-DLRip] VO (П. Морозов)

Статистика раздачи
Размер:  1,26 GB   |    Зарегистрирован:  1 год 10 месяцев   |    Скачан:  17 раз

Полного источника не было: 5 месяцев 9 дней

Сидов:  0  |  0 KB/s  ]   Личеров:  0  |  0 KB/s  ]

* - сиды/пиры с внешних источников

   
 
Автор Сообщение

Ведьмочка Пол:Жен

26-Янв-2015 11:12

Эверли / Everly


Страна: США
Год выпуска: 2014
Жанр: Боевик, Триллер
Продолжительность: 01:32:22
Режиссёр: Джо Линч
В ролях: Сальма Хайек, Дженнифер Бланк, Того Игава, Кэролайн Чикези, Габриэлла Райт, Энди МакДермотт, Аки Котабе, Уки Сертич, Масаси Фудзимото, Елена Гаврилович
Сюжет фильма:
Женщина пытается выжить в схватке с бойцами якудзы, чтобы спасти своих мать и дочь. Действие всего фильма происходит в стенах одной квартиры.

Озвучивание:
  • Любительский, Одноголосный, Русский [П. Морозов]

Качество видео: WEB-DLRip
Формат: AVI

Видео: XviD, 720x304 (2.35:1), 23.976 fps, ~1755 Кбит/сек
Аудио: AC-3, 192 Кбит/сек, 2 Канала, 48.0 КГц



Общее
Полное имя : \Everly.2014.avi
Формат : AVI
Формат/Информация : Audio Video Interleave
Размер файла : 1,26 Гбайт
Продолжительность : 1 ч. 32 м.
Общий поток : 1957 Кбит/сек
Программа кодирования : VirtualDubMod 1.5.10.2 (build 2540/release)
Библиотека кодирования : VirtualDubMod build 2540/release

Видео
Идентификатор : 0
Формат : MPEG-4 Visual
Профиль формата : Advanced Simple@L5
Параметр BVOP формата : 2
Параметр QPel формата : Нет
Параметр GMC формата : Без точки перехода
Параметр матрицы формата : Default (H.263)
Режим смешивания : Сжатый битовый поток
Идентификатор кодека : XVID
Идентификатор кодека/Подсказка : XviD
Продолжительность : 1 ч. 32 м.
Битрейт : 1755 Кбит/сек
Ширина : 720 пикселей
Высота : 304 пикселя
Соотношение сторон : 2,35:1
Частота кадров : 23,976 кадра/сек
Цветовое пространство : YUV
Субдискретизация насыщенности : 4:2:0
Битовая глубина : 8 бит
Тип развёртки : Прогрессивная
Метод сжатия : С потерями
Бит/(Пиксели*Кадры) : 0.334
Размер потока : 1,13 Гбайт (90%)
Библиотека кодирования : XviD 64

Аудио
Идентификатор : 1
Формат : AC-3
Формат/Информация : Audio Coding 3
Расширение режима : CM (complete main)
Параметр Endianness формата : Big
Идентификатор кодека : 2000
Продолжительность : 1 ч. 32 м.
Вид битрейта : Постоянный
Битрейт : 192 Кбит/сек
Каналы : 2 канала
Расположение каналов : Front: L R
Частота : 48,0 КГц
Битовая глубина : 16 бит
Метод сжатия : С потерями
Размер потока : 127 Мбайт (10%)
Выравнивание : Разделение по промежуткам
Продолжительность промежутка : 42 мс. (1,00 видеокадр)
Время предзагрузки промежутка : 500 мс.


picpicpicpicpic
Для увеличения картинки щелкните мышкой по превью



Этот торрент недоступен для скачивания без регистрации, однако доступен по публичной magnet-ссылке (источники с публичных трекеров). Перед использованием ссылки прочтите, пожалуйста Пользовательское соглашение, а также как можно дольше оставайтесь на раздаче! Для того, чтобы скачать сам торрент-файл (который видит больше источников), а также для того, чтобы поблагодарить релизера, вам необходимо зарегистрироваться. Если регистрироваться лень - вы можете также попробовать скачать релиз по нашим партнерским ссылкам ниже.

[underverse.su].t48688.torrent
Трекер: Зарегистрирован   [ 26.01.2015 11:12 ]  

Статус: проверено (by Ведьмочка at 26.01.2015 11:22)
Поблагодарили: пока никто не поблагодарил...
Тип торрента: публичный - доступные источники с открытых трекеров: 
Размер: 1,26 GB (занимает 0,29 DVDR, для записи нужно 1 болванка DVDR/RW)
 
 
Похожие темы
Форум Тема Автор Торрент Отв. Посл. сооб.
Зарубежное кино [DVDRip, Low-Res HDRip, и т.д.] Эверли / Everly (Джо Линч / Joe Lynch) [2014 г., боевик, триллер, WEB-DLRip] DVO (RAIM & GUGU) + Original (Eng) 90ytr90
0 | 0

0 | 602

23

30.01.2015 14:17

Зарубежное кино [DVDRip, Low-Res HDRip, и т.д.] Эверли / Everly (Джо Линч / Joe Lynch) [2014 г., боевик, триллер, WEB-DLRip] MVO (Студия Пиратского Дубляжа) 90ytr90
0 | 0

0 | 540

8

16.02.2015 17:47

T Зарубежное кино [DVDRip, Low-Res HDRip, и т.д.] Эверли / Everly (Джо Линч / Joe Lynch) [2014 г., боевик, триллер, WEB-DLRip] Dub (чистый звук) + Original (Eng) 90ytr90
1 | 0

0 | 632

16

01.03.2015 08:06

Зарубежное кино [HDDVDRip / BDRip / WEB-DL / HDTV 1080/720р] Эверли / Everly (Джо Линч) [2014 г., Боевик, Триллер, WEB-DL 720p] 2-VO (А. Белоконский / П. Морозов) + Original (ENG) + Subs (ENG) Ведьмочка
0 | 0

0 | 12757

12

26.01.2015 11:30


Яндекс.Метрика powered by Sphinx


В Н И М А Н И Е
Сайт не распространяет и не хранит электронные версии произведений, а лишь бесплатно и без коммерческой выгоды (не требуя взамен платы,
SMS и т.д.) предоставляет доступ к создаваемому пользователями каталогу ссылок на торрент-файлы, которые содержат только списки хеш-сумм.
Убедительная просьба с жалобами обращаться напрямую к пользователю, разместившему торрент файл.

Вверх